#TITLE:Hardest song take 2;
#SUBTITLE:;
#ARTIST:Niko;
#TITLETRANSLIT:;
#SUBTITLETRANSLIT:;
#ARTISTTRANSLIT:;
#CREDIT:;
#BANNER:speed.jpg;
#BACKGROUND:speed-bg.jpg;
#LYRICSPATH:;
#CDTITLE:cd_title_niko.jpg;
#MUSIC:hard song.mp3;
#OFFSET:0.000;
#SAMPLESTART:6.000;
#SAMPLELENGTH:12.000;
#SELECTABLE:YES;
#BPMS:0.000=1000.000;
#STOPS:;
#BGCHANGES:;
// cache tags:
#FIRSTBEAT:0.000;
#LASTBEAT:2016.000;
#SONGFILENAME:Songs/Music V.I.P ^_^/Hardest Song Take 2/hardestsong take 2.sm;
#HASMUSIC:1;
#HASBANNER:1;
#MUSICLENGTH:119.936;
// end cache tags

//---------------dance-single - holy fucking----------------
#NOTES:
     dance-single:
     holy fucking:
     Hard:
     20:
     1.000,1.000,1.000,1.000,1.000,4785.000,1328.000,2565.000,0.000,2408.000:

1002
0100
0110
0010
0000
1000
0100
0010
0210
2300
3200
0320
0230
0300
1000
0100
,
0010
1000
0200
0310
1110
1120
1030
0210
2310
3100
1120
1130
0010
0010
0000
2220
,
3330
1100
1120
1130
1110
1110
1100
1110
1100
0110
0100
0010
2110
3000
1020
0030
,
0210
0310
0110
0110
0220
2330
3110
0100
0100
0010
0100
0000
0100
0210
0300
0220
,
0330
0100
0010
0100
0010
0120
0230
0310
0100
0010
0100
0010
0100
0010
0100
0010
,
0100
0010
0100
0010
0100
0010
0100
0010
0100
0020
0130
0010
0100
0010
0100
1210
,
0320
1030
2000
3000
0220
2330
3000
1000
1100
2000
3020
0030
0000
1000
0020
1030
,
1110
1110
1000
0000
0010
1110
1110
1100
1100
1100
1100
1110
1000
2100
3120
0230
,
2310
3120
1030
1110
1100
1100
1100
1000
1000
0100
0200
0320
0030
1120
0030
2220
,
3330
1000
0020
2030
3120
2030
3220
0330
2000
3220
0330
1220
0300
2030
3120
2030
,
3200
0310
2000
3120
2030
3120
0030
1120
0000
1030
0010
2000
3010
2000
3020
2030
,
3000
0000
0000
0000
0000
0000
0000
0000
0000
0000
0000
0000
0020
0000
0000
0000
0000
0000
0000
0000
0000
0000
0000
0000
0030
0000
0000
0000
0000
0000
0000
0000
0000
0000
0000
0000
2020
0000
0000
0000
0000
0000
0000
0000
0000
0000
0000
0000
3030
0000
0000
0000
0000
0000
0000
0000
0000
0000
0000
0000
0010
0000
0000
0000
0000
0000
0000
0000
0000
0000
0000
0000
1000
0000
0000
0000
0000
0000
0000
0000
0000
0000
0000
0000
0010
0000
0000
0000
0000
0000
0000
0000
0000
0000
0000
0000
1100
0000
0000
0000
0000
0000
0000
0000
0000
0000
0000
0000
2100
0000
0000
0000
0000
0000
0000
0000
0000
0000
0000
0000
3000
0000
0000
0000
0000
0000
0000
0000
0000
0000
0000
0000
0110
0000
0000
0000
0000
0000
0000
0000
0000
0000
0000
0000
0100
0000
0000
0000
0000
0000
0000
0000
0200
0300
0210
1300
2110
3020
2130
3110
1000
0110
1020
0030
1020
2030
3020
2030
3220
2330
3210
1300
2000
3220
0330
0000
0000
0020
0000
0000
2030
0000
0000
3020
2000
0000
0030
0000
3220
0000
0000
0000
,
2330
0000
0000
0000
0000
0000
3000
0000
0200
0000
0000
0000
0010
0000
0000
0000
0300
0000
0000
0000
0000
0000
0000
0000
0020
0000
0000
0000
0000
0000
0000
0000
1030
0000
0000
0000
0000
0000
0000
0000
0220
0000
0000
0000
0000
0000
0000
0000
2330
0000
0000
0000
0000
0000
0000
0000
3220
0000
0000
0000
1000
0000
0000
0000
0330
0000
0000
0000
0000
0000
0000
0000
0110
0000
0000
0000
0000
0000
0000
0000
0000
0000
0000
0000
1020
0000
0000
0000
0000
0000
0000
0000
0000
0000
0000
0000
0230
0000
0000
0000
0000
0000
0000
0000
0000
0000
0000
0000
1300
0000
0000
0000
0000
0000
0000
0000
0000
0000
0000
0000
2110
0000
0000
0000
0000
0000
0000
0000
0000
0000
0000
0000
3020
0000
0000
0000
0000
0000
0000
0000
0000
0000
0000
0000
2030
0000
0000
0000
0000
0000
0000
0000
0000
0000
0000
0000
3020
0000
0000
0000
0000
0000
0000
0000
0000
0000
0000
0000
2030
0000
0000
0000
0000
0000
0000
0000
0000
0000
0000
0000
3020
0000
0000
0000
0000
0000
0000
0000
0000
0000
0000
0000
,
2030
3020
2030
3020
2030
3020
2030
3000
0000
0000
0000
0000
0000
0000
0000
0000
,
0000
0000
0000
0000
0000
0000
0000
0000
0200
0000
0000
0320
0000
0000
0030
0000
,
0000
0000
0200
0000
0000
0300
0000
0000
0200
0000
0020
0300
0000
0000
0000
0030
,
0200
0020
0000
0300
0030
1210
0320
0000
1030
0000
0000
0000
0000
0000
0000
0000
,
0000
0200
0000
0000
0320
1230
0300
0000
0000
0000
0000
0000
0000
0200
0000
0300
,
0000
0020
0000
0000
0030
0000
0000
0000
0000
0000
0100
0020
0000
0000
0030
0000
,
1000
0000
0000
0010
0200
2300
3200
0320
0030
0100
1000
0100
0010
0100
1000
0200
,
0320
0230
2300
3000
0100
0010
0100
1000
0100
0010
0100
2000
3200
0320
0230
2300
,
3200
0300
0010
0100
1000
0100
0100
0010
0100
1000
0100
0010
0100
1000
0100
0010
,
0200
2300
3000
0100
0010
0100
0200
0300
0000
0100
0010
1000
0200
0310
0200
2300
,
3000
0120
0030
0100
1100
0000
0000
0000
0000
0000
0000
0000
0000
0000
0000
0000
,
1000
0100
0110
0010
0000
1000
0100
0010
0210
2300
3200
0320
0230
0300
1000
0100
,
0010
1000
0200
0310
1110
1120
1030
0210
2310
3100
1120
1130
0010
0010
0000
2220
,
3330
1100
1120
1130
1110
1110
1100
1110
1100
0110
0100
0010
2110
3000
1020
0030
,
0210
0310
0110
0110
0220
2330
3110
0100
0100
0010
0100
0000
0100
0210
0300
0220
,
0330
0100
0010
0100
0010
0120
0230
0310
0100
0010
0100
0010
0100
0010
0100
0010
,
0100
0010
0100
0010
0100
0010
0100
0010
0100
0020
0130
0010
0100
0010
0100
1210
,
0320
1030
2000
3000
0220
2330
3000
1000
1100
2000
3020
0030
0000
1000
0020
1030
,
1110
1110
1000
0000
0010
1110
1110
1100
1100
1100
1100
1110
1000
2100
3120
0230
,
2310
3120
1030
1110
1100
1100
1100
1000
1000
0100
0200
0320
0030
1120
0030
2220
,
3330
1000
0020
2030
3120
2030
3220
0330
2000
3220
0330
1220
0300
2030
3120
2030
,
3200
0310
2000
3120
2030
3120
0030
1120
0000
1030
0010
2000
3010
2000
3020
2030
,
3000
0000
0000
0000
0000
0000
0000
0000
0000
0000
0000
0000
0020
0000
0000
0000
0000
0000
0000
0000
0000
0000
0000
0000
0030
0000
0000
0000
0000
0000
0000
0000
0000
0000
0000
0000
2020
0000
0000
0000
0000
0000
0000
0000
0000
0000
0000
0000
3030
0000
0000
0000
0000
0000
0000
0000
0000
0000
0000
0000
0010
0000
0000
0000
0000
0000
0000
0000
0000
0000
0000
0000
1000
0000
0000
0000
0000
0000
0000
0000
0000
0000
0000
0000
0010
0000
0000
0000
0000
0000
0000
0000
0000
0000
0000
0000
1100
0000
0000
0000
0000
0000
0000
0000
0000
0000
0000
0000
2100
0000
0000
0000
0000
0000
0000
0000
0000
0000
0000
0000
3000
0000
0000
0000
0000
0000
0000
0000
0000
0000
0000
0000
0110
0000
0000
0000
0000
0000
0000
0000
0000
0000
0000
0000
0100
0000
0000
0000
0000
0000
0000
0000
0200
0300
0210
1300
2110
3020
2130
3110
1000
0110
1020
0030
1020
2030
3020
2030
3220
2330
3210
1300
2000
3220
0330
0000
0000
0020
0000
0000
2030
0000
0000
3020
2000
0000
0030
0000
3220
0000
0000
0000
,
2330
0000
0000
0000
0000
0000
3000
0000
0200
0000
0000
0000
0010
0000
0000
0000
0300
0000
0000
0000
0000
0000
0000
0000
0020
0000
0000
0000
0000
0000
0000
0000
1030
0000
0000
0000
0000
0000
0000
0000
0220
0000
0000
0000
0000
0000
0000
0000
2330
0000
0000
0000
0000
0000
0000
0000
3220
0000
0000
0000
1000
0000
0000
0000
0330
0000
0000
0000
0000
0000
0000
0000
0110
0000
0000
0000
0000
0000
0000
0000
0000
0000
0000
0000
1020
0000
0000
0000
0000
0000
0000
0000
0000
0000
0000
0000
0230
0000
0000
0000
0000
0000
0000
0000
0000
0000
0000
0000
1300
0000
0000
0000
0000
0000
0000
0000
0000
0000
0000
0000
2110
0000
0000
0000
0000
0000
0000
0000
0000
0000
0000
0000
3020
0000
0000
0000
0000
0000
0000
0000
0000
0000
0000
0000
2030
0000
0000
0000
0000
0000
0000
0000
0000
0000
0000
0000
3020
0000
0000
0000
0000
0000
0000
0000
0000
0000
0000
0000
2030
0000
0000
0000
0000
0000
0000
0000
0000
0000
0000
0000
3020
0000
0000
0000
0000
0000
0000
0000
0000
0000
0000
0000
,
2030
3020
2030
3020
2030
3020
2030
3000
0000
0000
0000
0000
0000
0000
0000
0000
,
0000
0000
0000
0000
0000
0000
0000
0000
0200
0000
0000
0320
0000
0000
0030
0000
,
0000
0000
0200
0000
0000
0300
0000
0000
0200
0000
0020
0300
0000
0000
0000
0030
,
0200
0020
0000
0300
0030
1210
0320
0000
1030
0000
0000
0000
0000
0000
0000
0000
,
0000
0200
0000
0000
0320
1230
0300
0000
0000
0000
0000
0000
0000
0200
0000
0300
,
0000
0020
0000
0000
0030
0000
0000
0000
0000
0000
0100
0020
0000
0000
0030
0000
,
1000
0000
0000
0010
0200
2300
3200
0320
0030
0100
1000
0100
0010
0100
1000
0200
,
0320
0230
2300
3000
0100
0010
0100
1000
0100
0010
0100
2000
3200
0320
0230
2300
,
3200
0300
0010
0100
1000
0100
0100
0010
0100
1000
0100
0010
0100
1000
0100
0010
,
0200
2300
3000
0100
0010
0100
0200
0300
0000
0100
0010
1000
0200
0310
0200
2300
,
3000
0000
0000
0000
0000
0000
0000
0000
0000
0000
0000
0000
0120
0000
0000
0000
0000
0000
0000
0000
0000
0000
0000
0000
0030
0000
0000
0000
0000
0000
0000
0000
0000
0000
0000
0000
0100
0000
0000
0000
0000
0000
0000
0000
0000
0000
0000
0000
1100
0000
0000
0000
0000
0000
0000
0000
0000
0000
0000
0000
0000
0000
0000
0000
0000
0000
0000
0000
0000
0000
0000
0000
0003
0002
0000
0000
0000
0000
0000
0000
0000
0000
0000
0000
0000
0000
0000
0000
0000
0000
0000
0000
0000
0000
0000
0000
0000
0000
0000
0000
0000
0000
0000
0000
0000
0000
0000
0000
0000
0000
0000
0000
0000
0000
0000
0000
0000
0000
0000
0000
0000
0000
0000
0000
0000
0000
0000
0000
0000
0000
0000
0000
0000
0000
0000
0000
0000
0000
0000
0000
0000
0000
0000
0000
0000
0000
0000
0000
0000
0000
0000
0000
0000
0000
0000
0000
0000
0000
0000
0000
0000
0000
0000
0000
0000
0000
0000
0000
0000
0000
0000
0000
0000
0000
0000
0000
0000
0000
0000
0000
0000
0000
0000
0000
0000
0000
0000
0000
0000
0000
0000
0000
,
1000
0100
0110
0010
0000
1000
0100
0010
0210
2300
3200
0320
0230
0300
1000
0100
,
0010
1000
0200
0310
1110
1120
1030
0210
2310
3100
1120
1130
0010
0010
0000
2220
,
3330
1100
1120
1130
1110
1110
1100
1110
1100
0110
0100
0010
2110
3000
1020
0030
,
0210
0310
0110
0110
0220
2330
3110
0100
0100
0010
0100
0000
0100
0210
0300
0220
,
0330
0100
0010
0100
0010
0120
0230
0310
0100
0010
0100
0010
0100
0010
0100
0010
,
0100
0010
0100
0010
0100
0010
0100
0010
0100
0020
0130
0010
0100
0010
0100
1210
,
0320
1030
2000
3000
0220
2330
3000
1000
1100
2000
3020
0030
0000
1000
0020
1030
,
1110
1110
1000
0000
0010
1110
1110
1100
1100
1100
1100
1110
1000
2100
3120
0230
,
2310
3120
1030
1110
1100
1100
1100
1000
1000
0100
0200
0320
0030
1120
0030
2220
,
3330
1000
0020
2030
3120
2030
3220
0330
2000
3220
0330
1220
0300
2030
3120
2030
,
3200
0310
2000
3120
2030
3120
0030
1120
0000
1030
0010
2000
3010
2000
3020
2030
,
3000
0000
0000
0000
0000
0000
0000
0000
0000
0000
0000
0000
0020
0000
0000
0000
0000
0000
0000
0000
0000
0000
0000
0000
0030
0000
0000
0000
0000
0000
0000
0000
0000
0000
0000
0000
2020
0000
0000
0000
0000
0000
0000
0000
0000
0000
0000
0000
3030
0000
0000
0000
0000
0000
0000
0000
0000
0000
0000
0000
0010
0000
0000
0000
0000
0000
0000
0000
0000
0000
0000
0000
1000
0000
0000
0000
0000
0000
0000
0000
0000
0000
0000
0000
0010
0000
0000
0000
0000
0000
0000
0000
0000
0000
0000
0000
1100
0000
0000
0000
0000
0000
0000
0000
0000
0000
0000
0000
2100
0000
0000
0000
0000
0000
0000
0000
0000
0000
0000
0000
3000
0000
0000
0000
0000
0000
0000
0000
0000
0000
0000
0000
0110
0000
0000
0000
0000
0000
0000
0000
0000
0000
0000
0000
0100
0000
0000
0000
0000
0000
0000
0000
0200
0300
0210
1300
2110
3020
2130
3110
1000
0110
1020
0030
1020
2030
3020
2030
3220
2330
3210
1300
2000
3220
0330
0000
0000
0020
0000
0000
2030
0000
0000
3020
2000
0000
0030
0000
3220
0000
0000
0000
,
2330
0000
0000
0000
0000
0000
3000
0000
0200
0000
0000
0000
0010
0000
0000
0000
0300
0000
0000
0000
0000
0000
0000
0000
0020
0000
0000
0000
0000
0000
0000
0000
1030
0000
0000
0000
0000
0000
0000
0000
0220
0000
0000
0000
0000
0000
0000
0000
2330
0000
0000
0000
0000
0000
0000
0000
3220
0000
0000
0000
1000
0000
0000
0000
0330
0000
0000
0000
0000
0000
0000
0000
0110
0000
0000
0000
0000
0000
0000
0000
0000
0000
0000
0000
1020
0000
0000
0000
0000
0000
0000
0000
0000
0000
0000
0000
0230
0000
0000
0000
0000
0000
0000
0000
0000
0000
0000
0000
1300
0000
0000
0000
0000
0000
0000
0000
0000
0000
0000
0000
2110
0000
0000
0000
0000
0000
0000
0000
0000
0000
0000
0000
3020
0000
0000
0000
0000
0000
0000
0000
0000
0000
0000
0000
2030
0000
0000
0000
0000
0000
0000
0000
0000
0000
0000
0000
3020
0000
0000
0000
0000
0000
0000
0000
0000
0000
0000
0000
2030
0000
0000
0000
0000
0000
0000
0000
0000
0000
0000
0000
3020
0000
0000
0000
0000
0000
0000
0000
0000
0000
0000
0000
,
2030
3020
2030
3020
2030
3020
2030
3000
0000
0000
0000
0000
0000
0000
0000
0000
,
0000
0000
0000
0000
0000
0000
0000
0000
0200
0000
0000
0320
0000
0000
0030
0000
,
0000
0000
0200
0000
0000
0300
0000
0000
0200
0000
0020
0300
0000
0000
0000
0030
,
0200
0020
0000
0300
0030
1210
0320
0000
1030
0000
0000
0000
0000
0000
0000
0000
,
0000
0200
0000
0000
0320
1230
0300
0000
0000
0000
0000
0000
0000
0200
0000
0300
,
0000
0020
0000
0000
0030
0000
0000
0000
0000
0000
0100
0020
0000
0000
0030
0000
,
1000
0000
0000
0010
0200
2300
3200
0320
0030
0100
1000
0100
0010
0100
1000
0200
,
0320
0230
2300
3000
0100
0010
0100
1000
0100
0010
0100
2000
3200
0320
0230
2300
,
3200
0300
0010
0100
1000
0100
0100
0010
0100
1000
0100
0010
0100
1000
0100
0010
,
0200
2300
3000
0100
0010
0100
0200
0300
0000
0100
0010
1000
0200
0310
0200
2300
,
3000
0000
0000
0000
0000
0000
0000
0000
0000
0000
0000
0000
0120
0000
0000
0000
0000
0000
0000
0000
0000
0000
0000
0000
0030
0000
0000
0000
0000
0000
0000
0000
0000
0000
0000
0000
0100
0000
0000
0000
0000
0000
0000
0000
0000
0000
0000
0000
1100
0000
0000
0000
0000
0000
0000
0000
0000
0000
0000
0000
0000
0000
0000
0000
0000
0000
0000
0000
0000
0000
0000
0000
0003
0002
0000
0000
0000
0000
0000
0000
0000
0000
0000
0000
0000
0000
0000
0000
0000
0000
0000
0000
0000
0000
0000
0000
0000
0000
0000
0000
0000
0000
0000
0000
0000
0000
0000
0000
0000
0000
0000
0000
0000
0000
0000
0000
0000
0000
0000
0000
0000
0000
0000
0000
0000
0000
0000
0000
0000
0000
0000
0000
0000
0000
0000
0000
0000
0000
0000
0000
0000
0000
0000
0000
0000
0000
0000
0000
0000
0000
0000
0000
0000
0000
0000
0000
0000
0000
0000
0000
0000
0000
0000
0000
0000
0000
0000
0000
0000
0000
0000
0000
0000
0000
0000
0000
0000
0000
0000
0000
0000
0000
0000
0000
0000
0000
0000
0000
0000
0000
0000
0000
,
1000
0100
0110
0010
0000
1000
0100
0010
0210
2300
3200
0320
0230
0300
1000
0100
,
0010
1000
0200
0310
1110
1120
1030
0210
2310
3100
1120
1130
0010
0010
0000
2220
,
3330
1100
1120
1130
1110
1110
1100
1110
1100
0110
0100
0010
2110
3000
1020
0030
,
0210
0310
0110
0110
0220
2330
3110
0100
0100
0010
0100
0000
0100
0210
0300
0220
,
0330
0100
0010
0100
0010
0120
0230
0310
0100
0010
0100
0010
0100
0010
0100
0010
,
0100
0010
0100
0010
0100
0010
0100
0010
0100
0020
0130
0010
0100
0010
0100
1210
,
0320
1030
2000
3000
0220
2330
3000
1000
1100
2000
3020
0030
0000
1000
0020
1030
,
1110
1110
1000
0000
0010
1110
1110
1100
1100
1100
1100
1110
1000
2100
3120
0230
,
2310
3120
1030
1110
1100
1100
1100
1000
1000
0100
0200
0320
0030
1120
0030
2220
,
3330
1000
0020
2030
3120
2030
3220
0330
2000
3220
0330
1220
0300
2030
3120
2030
,
3200
0310
2000
3120
2030
3120
0030
1120
0000
1030
0010
2000
3010
2000
3020
2030
,
3000
0000
0000
0000
0000
0000
0000
0000
0000
0000
0000
0000
0020
0000
0000
0000
0000
0000
0000
0000
0000
0000
0000
0000
0030
0000
0000
0000
0000
0000
0000
0000
0000
0000
0000
0000
2020
0000
0000
0000
0000
0000
0000
0000
0000
0000
0000
0000
3030
0000
0000
0000
0000
0000
0000
0000
0000
0000
0000
0000
0010
0000
0000
0000
0000
0000
0000
0000
0000
0000
0000
0000
1000
0000
0000
0000
0000
0000
0000
0000
0000
0000
0000
0000
0010
0000
0000
0000
0000
0000
0000
0000
0000
0000
0000
0000
1100
0000
0000
0000
0000
0000
0000
0000
0000
0000
0000
0000
2100
0000
0000
0000
0000
0000
0000
0000
0000
0000
0000
0000
3000
0000
0000
0000
0000
0000
0000
0000
0000
0000
0000
0000
0110
0000
0000
0000
0000
0000
0000
0000
0000
0000
0000
0000
0100
0000
0000
0000
0000
0000
0000
0000
0200
0300
0210
1300
2110
3020
2130
3110
1000
0110
1020
0030
1020
2030
3020
2030
3220
2330
3210
1300
2000
3220
0330
0000
0000
0020
0000
0000
2030
0000
0000
3020
2000
0000
0030
0000
3220
0000
0000
0000
,
2330
0000
0000
0000
0000
0000
3000
0000
0200
0000
0000
0000
0010
0000
0000
0000
0300
0000
0000
0000
0000
0000
0000
0000
0020
0000
0000
0000
0000
0000
0000
0000
1030
0000
0000
0000
0000
0000
0000
0000
0220
0000
0000
0000
0000
0000
0000
0000
2330
0000
0000
0000
0000
0000
0000
0000
3220
0000
0000
0000
1000
0000
0000
0000
0330
0000
0000
0000
0000
0000
0000
0000
0110
0000
0000
0000
0000
0000
0000
0000
0000
0000
0000
0000
1020
0000
0000
0000
0000
0000
0000
0000
0000
0000
0000
0000
0230
0000
0000
0000
0000
0000
0000
0000
0000
0000
0000
0000
1300
0000
0000
0000
0000
0000
0000
0000
0000
0000
0000
0000
2110
0000
0000
0000
0000
0000
0000
0000
0000
0000
0000
0000
3020
0000
0000
0000
0000
0000
0000
0000
0000
0000
0000
0000
2030
0000
0000
0000
0000
0000
0000
0000
0000
0000
0000
0000
3020
0000
0000
0000
0000
0000
0000
0000
0000
0000
0000
0000
2030
0000
0000
0000
0000
0000
0000
0000
0000
0000
0000
0000
3020
0000
0000
0000
0000
0000
0000
0000
0000
0000
0000
0000
,
2030
3020
2030
3020
2030
3020
2030
3000
0000
0000
0000
0000
0000
0000
0000
0000
,
0000
0000
0000
0000
0000
0000
0000
0000
0200
0000
0000
0320
0000
0000
0030
0000
,
0000
0000
0200
0000
0000
0300
0000
0000
0200
0000
0020
0300
0000
0000
0000
0030
,
0200
0020
0000
0300
0030
1210
0320
0000
1030
0000
0000
0000
0000
0000
0000
0000
,
0000
0200
0000
0000
0320
1230
0300
0000
0000
0000
0000
0000
0000
0200
0000
0300
,
0000
0020
0000
0000
0030
0000
0000
0000
0000
0000
0100
0020
0000
0000
0030
0000
,
1000
0000
0000
0010
0200
2300
3200
0320
0030
0100
1000
0100
0010
0100
1000
0200
,
0320
0230
2300
3000
0100
0010
0100
1000
0100
0010
0100
2000
3200
0320
0230
2300
,
3200
0300
0010
0100
1000
0100
0100
0010
0100
1000
0100
0010
0100
1000
0100
0010
,
0200
2300
3000
0100
0010
0100
0200
0300
0000
0100
0010
1000
0200
0310
0200
2300
,
3000
0000
0000
0000
0000
0000
0000
0000
0000
0000
0000
0000
0120
0000
0000
0000
0000
0000
0000
0000
0000
0000
0000
0000
0030
0000
0000
0000
0000
0000
0000
0000
0000
0000
0000
0000
0100
0000
0000
0000
0000
0000
0000
0000
0000
0000
0000
0000
1100
0000
0000
0000
0000
0000
0000
0000
0000
0000
0000
0000
0000
0000
0000
0000
0000
0000
0000
0000
0000
0000
0000
0000
0003
0002
0000
0000
0000
0000
0000
0000
0000
0000
0000
0000
0000
0000
0000
0000
0000
0000
0000
0000
0000
0000
0000
0000
0000
0000
0000
0000
0000
0000
0000
0000
0000
0000
0000
0000
0000
0000
0000
0000
0000
0000
0000
0000
0000
0000
0000
0000
0000
0000
0000
0000
0000
0000
0000
0000
0000
0000
0000
0000
0000
0000
0000
0000
0000
0000
0000
0000
0000
0000
0000
0000
0000
0000
0000
0000
0000
0000
0000
0000
0000
0000
0000
0000
0000
0000
0000
0000
0000
0000
0000
0000
0000
0000
0000
0000
0000
0000
0000
0000
0000
0000
0000
0000
0000
0000
0000
0000
0000
0000
0000
0000
0000
0000
0000
0000
0000
0000
0000
0000
,
0000
0000
0000
0000
,
0000
0000
0000
0000
,
0000
0000
0020
0000
,
0000
0000
0000
0000
,
0000
0000
0000
0000
,
0000
0000
0000
0000
,
0000
0030
0000
0000
,
1000
0100
0110
0010
0000
1000
0100
0010
0210
2300
3200
0320
0230
0300
1000
0100
,
0010
1000
0200
0310
1110
1120
1030
0210
2310
3100
1120
1130
0010
0010
0000
2220
,
3330
1100
1120
1130
1110
1110
1100
1110
1100
0110
0100
0010
2110
3000
1020
0030
,
0210
0310
0110
0110
0220
2330
3110
0100
0100
0010
0100
0000
0100
0210
0300
0220
,
0330
0100
0010
0100
0010
0120
0230
0310
0100
0010
0100
0010
0100
0010
0100
0010
,
0100
0010
0100
0010
0100
0010
0100
0010
0100
0020
0130
0010
0100
0010
0100
1210
,
0320
1030
2000
3000
0220
2330
3000
1000
1100
2000
3020
0030
0000
1000
0020
1030
,
1110
1110
1000
0000
0010
1110
1110
1100
1100
1100
1100
1110
1000
2100
3120
0230
,
2310
3120
1030
1110
1100
1100
1100
1000
1000
0100
0200
0320
0030
1120
0030
2220
,
3330
1000
0020
2030
3120
2030
3220
0330
2000
3220
0330
1220
0300
2030
3120
2030
,
3200
0310
2000
3120
2030
3120
0030
1120
0000
1030
0010
2000
3010
2000
3020
2030
,
3000
0000
0000
0000
0000
0000
0000
0000
0000
0000
0000
0000
0020
0000
0000
0000
0000
0000
0000
0000
0000
0000
0000
0000
0030
0000
0000
0000
0000
0000
0000
0000
0000
0000
0000
0000
2020
0000
0000
0000
0000
0000
0000
0000
0000
0000
0000
0000
3030
0000
0000
0000
0000
0000
0000
0000
0000
0000
0000
0000
0010
0000
0000
0000
0000
0000
0000
0000
0000
0000
0000
0000
1000
0000
0000
0000
0000
0000
0000
0000
0000
0000
0000
0000
0010
0000
0000
0000
0000
0000
0000
0000
0000
0000
0000
0000
1100
0000
0000
0000
0000
0000
0000
0000
0000
0000
0000
0000
2100
0000
0000
0000
0000
0000
0000
0000
0000
0000
0000
0000
3000
0000
0000
0000
0000
0000
0000
0000
0000
0000
0000
0000
0110
0000
0000
0000
0000
0000
0000
0000
0000
0000
0000
0000
0100
0000
0000
0000
0000
0000
0000
0000
0200
0300
0210
1300
2110
3020
2130
3110
1000
0110
1020
0030
1020
2030
3020
2030
3220
2330
3210
1300
2000
3220
0330
0000
0000
0020
0000
0000
2030
0000
0000
3020
2000
0000
0030
0000
3220
0000
0000
0000
,
2330
0000
0000
0000
0000
0000
3000
0000
0200
0000
0000
0000
0010
0000
0000
0000
0300
0000
0000
0000
0000
0000
0000
0000
0020
0000
0000
0000
0000
0000
0000
0000
1030
0000
0000
0000
0000
0000
0000
0000
0220
0000
0000
0000
0000
0000
0000
0000
2330
0000
0000
0000
0000
0000
0000
0000
3220
0000
0000
0000
1000
0000
0000
0000
0330
0000
0000
0000
0000
0000
0000
0000
0110
0000
0000
0000
0000
0000
0000
0000
0000
0000
0000
0000
1020
0000
0000
0000
0000
0000
0000
0000
0000
0000
0000
0000
0230
0000
0000
0000
0000
0000
0000
0000
0000
0000
0000
0000
1300
0000
0000
0000
0000
0000
0000
0000
0000
0000
0000
0000
2110
0000
0000
0000
0000
0000
0000
0000
0000
0000
0000
0000
3020
0000
0000
0000
0000
0000
0000
0000
0000
0000
0000
0000
2030
0000
0000
0000
0000
0000
0000
0000
0000
0000
0000
0000
3020
0000
0000
0000
0000
0000
0000
0000
0000
0000
0000
0000
2030
0000
0000
0000
0000
0000
0000
0000
0000
0000
0000
0000
3020
0000
0000
0000
0000
0000
0000
0000
0000
0000
0000
0000
,
2030
3020
2030
3020
2030
3020
2030
3000
0000
0000
0000
0000
0000
0000
0000
0000
,
0000
0000
0000
0000
0000
0000
0000
0000
0200
0000
0000
0320
0000
0000
0030
0000
,
0000
0000
0200
0000
0000
0300
0000
0000
0200
0000
0020
0300
0000
0000
0000
0030
,
0200
0020
0000
0300
0030
1210
0320
0000
1030
0000
0000
0000
0000
0000
0000
0000
,
0000
0200
0000
0000
0320
1230
0300
0000
0000
0000
0000
0000
0000
0200
0000
0300
,
0000
0020
0000
0000
0030
0000
0000
0000
0000
0000
0100
0020
0000
0000
0030
0000
,
1000
0000
0000
0010
0200
2300
3200
0320
0030
0100
1000
0100
0010
0100
1000
0200
,
0320
0230
2300
3000
0100
0010
0100
1000
0100
0010
0100
2000
3200
0320
0230
2300
,
3200
0300
0010
0100
1000
0100
0100
0010
0100
1000
0100
0010
0100
1000
0100
0010
,
0200
2300
3000
0100
0010
0100
0200
0300
0000
0100
0010
1000
0200
0310
0200
2300
,
3000
0000
0000
0000
0000
0000
0000
0000
0000
0000
0000
0000
0120
0000
0000
0000
0000
0000
0000
0000
0000
0000
0000
0000
0030
0000
0000
0000
0000
0000
0000
0000
0000
0000
0000
0000
0100
0000
0000
0000
0000
0000
0000
0000
0000
0000
0000
0000
1100
0000
0000
0000
0000
0000
0000
0000
0000
0000
0000
0000
0000
0000
0000
0000
0000
0000
0000
0000
0000
0000
0000
0000
0003
0002
0000
0000
0000
0000
0000
0000
0000
0000
0000
0000
0000
0000
0000
0000
0000
0000
0000
0000
0000
0000
0000
0000
0000
0000
0000
0000
0000
0000
0000
0000
0000
0000
0000
0000
0000
0000
0000
0000
0000
0000
0000
0000
0000
0000
0000
0000
0000
0000
0000
0000
0000
0000
0000
0000
0000
0000
0000
0000
0000
0000
0000
0000
0000
0000
0000
0000
0000
0000
0000
0000
0000
0000
0000
0000
0000
0000
0000
0000
0000
0000
0000
0000
0000
0000
0000
0000
0000
0000
0000
0000
0000
0000
0000
0000
0000
0000
0000
0000
0000
0000
0000
0000
0000
0000
0000
0000
0000
0000
0000
0000
0000
0000
0000
0000
0000
0000
0000
0000
,
1000
0100
0110
0010
0000
1000
0100
0010
0210
2300
3200
0320
0230
0300
1000
0100
,
0010
1000
0200
0310
1110
1120
1030
0210
2310
3100
1120
1130
0010
0010
0000
2220
,
3330
1100
1120
1130
1110
1110
1100
1110
1100
0110
0100
0010
2110
3000
1020
0030
,
0210
0310
0110
0110
0220
2330
3110
0100
0100
0010
0100
0000
0100
0210
0300
0220
,
0330
0100
0010
0100
0010
0120
0230
0310
0100
0010
0100
0010
0100
0010
0100
0010
,
0100
0010
0100
0010
0100
0010
0100
0010
0100
0020
0130
0010
0100
0010
0100
1210
,
0320
1030
2000
3000
0220
2330
3000
1000
1100
2000
3020
0030
0000
1000
0020
1030
,
1110
1110
1000
0000
0010
1110
1110
1100
1100
1100
1100
1110
1000
2100
3120
0230
,
2310
3120
1030
1110
1100
1100
1100
1000
1000
0100
0200
0320
0030
1120
0030
2220
,
3330
1000
0020
2030
3120
2030
3220
0330
2000
3220
0330
1220
0300
2030
3120
2030
,
3200
0310
2000
3120
2030
3120
0030
1120
0000
1030
0010
2000
3010
2000
3020
2030
,
3000
0000
0000
0000
0000
0000
0000
0000
0000
0000
0000
0000
0020
0000
0000
0000
0000
0000
0000
0000
0000
0000
0000
0000
0030
0000
0000
0000
0000
0000
0000
0000
0000
0000
0000
0000
2020
0000
0000
0000
0000
0000
0000
0000
0000
0000
0000
0000
3030
0000
0000
0000
0000
0000
0000
0000
0000
0000
0000
0000
0010
0000
0000
0000
0000
0000
0000
0000
0000
0000
0000
0000
1000
0000
0000
0000
0000
0000
0000
0000
0000
0000
0000
0000
0010
0000
0000
0000
0000
0000
0000
0000
0000
0000
0000
0000
1100
0000
0000
0000
0000
0000
0000
0000
0000
0000
0000
0000
2100
0000
0000
0000
0000
0000
0000
0000
0000
0000
0000
0000
3000
0000
0000
0000
0000
0000
0000
0000
0000
0000
0000
0000
0110
0000
0000
0000
0000
0000
0000
0000
0000
0000
0000
0000
0100
0000
0000
0000
0000
0000
0000
0000
0200
0300
0210
1300
2110
3020
2130
3110
1000
0110
1020
0030
1020
2030
3020
2030
3220
2330
3210
1300
2000
3220
0330
0000
0000
0020
0000
0000
2030
0000
0000
3020
2000
0000
0030
0000
3220
0000
0000
0000
,
2330
0000
0000
0000
0000
0000
3000
0000
0200
0000
0000
0000
0010
0000
0000
0000
0300
0000
0000
0000
0000
0000
0000
0000
0020
0000
0000
0000
0000
0000
0000
0000
1030
0000
0000
0000
0000
0000
0000
0000
0220
0000
0000
0000
0000
0000
0000
0000
2330
0000
0000
0000
0000
0000
0000
0000
3220
0000
0000
0000
1000
0000
0000
0000
0330
0000
0000
0000
0000
0000
0000
0000
0110
0000
0000
0000
0000
0000
0000
0000
0000
0000
0000
0000
1020
0000
0000
0000
0000
0000
0000
0000
0000
0000
0000
0000
0230
0000
0000
0000
0000
0000
0000
0000
0000
0000
0000
0000
1300
0000
0000
0000
0000
0000
0000
0000
0000
0000
0000
0000
2110
0000
0000
0000
0000
0000
0000
0000
0000
0000
0000
0000
3020
0000
0000
0000
0000
0000
0000
0000
0000
0000
0000
0000
2030
0000
0000
0000
0000
0000
0000
0000
0000
0000
0000
0000
3020
0000
0000
0000
0000
0000
0000
0000
0000
0000
0000
0000
2030
0000
0000
0000
0000
0000
0000
0000
0000
0000
0000
0000
3020
0000
0000
0000
0000
0000
0000
0000
0000
0000
0000
0000
,
2030
3020
2030
3020
2030
3020
2030
3000
0000
0000
0000
0000
0000
0000
0000
0000
,
0000
0000
0000
0000
0000
0000
0000
0000
0200
0000
0000
0320
0000
0000
0030
0000
,
0000
0000
0200
0000
0000
0300
0000
0000
0200
0000
0020
0300
0000
0000
0000
0030
,
0200
0020
0000
0300
0030
1210
0320
0000
1030
0000
0000
0000
0000
0000
0000
0000
,
0000
0200
0000
0000
0320
1230
0300
0000
0000
0000
0000
0000
0000
0200
0000
0300
,
0000
0020
0000
0000
0030
0000
0000
0000
0000
0000
0100
0020
0000
0000
0030
0000
,
1000
0000
0000
0010
0200
2300
3200
0320
0030
0100
1000
0100
0010
0100
1000
0200
,
0320
0230
2300
3000
0100
0010
0100
1000
0100
0010
0100
2000
3200
0320
0230
2300
,
3200
0300
0010
0100
1000
0100
0100
0010
0100
1000
0100
0010
0100
1000
0100
0010
,
0200
2300
3000
0100
0010
0100
0200
0300
0000
0100
0010
1000
0200
0310
0200
2300
,
3000
0000
0000
0000
0000
0000
0000
0000
0000
0000
0000
0000
0120
0000
0000
0000
0000
0000
0000
0000
0000
0000
0000
0000
0030
0000
0000
0000
0000
0000
0000
0000
0000
0000
0000
0000
0100
0000
0000
0000
0000
0000
0000
0000
0000
0000
0000
0000
1100
0000
0000
0000
0000
0000
0000
0000
0000
0000
0000
0000
0000
0000
0000
0000
0000
0000
0000
0000
0000
0000
0000
0000
0003
0002
0000
0000
0000
0000
0000
0000
0000
0000
0000
0000
0000
0000
0000
0000
0000
0000
0000
0000
0000
0000
0000
0000
0000
0000
0000
0000
0000
0000
0000
0000
0000
0000
0000
0000
0000
0000
0000
0000
0000
0000
0000
0000
0000
0000
0000
0000
0100
0000
0000
0000
0000
0000
0000
0000
0000
0000
0000
0000
0020
0000
0000
0000
0000
0000
0000
0000
0000
0000
0000
0000
0000
0000
0000
0000
0000
0000
0000
0000
0000
0000
0000
0000
0000
0000
0000
0000
0000
0000
0000
0000
0000
0000
0000
0000
0030
0000
0000
0000
0000
0000
0000
0000
0000
0000
0000
0000
0000
0000
0000
0000
0000
0000
0000
0000
0000
0000
0000
0000
,
1000
0000
0000
0010
0200
2300
3200
0320
0030
0100
1000
0100
0010
0100
1000
0200
,
0320
0230
2300
3000
0100
0010
0100
1000
0100
0010
0100
2000
3200
0320
0230
2300
,
3200
0300
0010
0100
1000
0100
0100
0010
0100
1000
0100
0010
0100
1000
0100
0010
,
0200
2300
3000
0100
0010
0100
0200
0300
0000
0100
0010
1000
0200
0310
0200
2300
,
3000
0000
0000
0000
0000
0000
0000
0000
0000
0000
0000
0000
0120
0000
0000
0000
0000
0000
0000
0000
0000
0000
0000
0000
0030
0000
0000
0000
0000
0000
0000
0000
0000
0000
0000
0000
0100
0000
0000
0000
0000
0000
0000
0000
0000
0000
0000
0000
1100
0000
0000
0000
0000
0000
0000
0000
0000
0000
0000
0000
0000
0000
0000
0000
0000
0000
0000
0000
0000
0000
0000
0000
0003
0022
0000
0000
0000
0000
0000
0000
0000
0000
0000
0000
0000
0000
0000
0000
0000
0000
0000
0000
0000
0000
0000
0000
0000
0000
0000
0000
0000
0000
0000
0000
0000
0000
0000
0000
0000
0000
0000
0000
0000
0000
0000
0000
0000
0000
0000
0000
0000
0000
0000
0000
0000
0000
0000
0000
0000
0000
0000
0000
0000
0000
0000
0000
0000
0000
0000
0000
0000
0000
0000
0000
0000
0000
0000
0000
0000
0000
0000
0000
0000
0000
0000
0000
0000
0000
0000
0000
0000
0000
0000
0000
0000
0000
0000
0000
0000
0000
0000
0000
0000
0000
0000
0000
0000
0000
0000
0000
0000
0000
0000
0000
0000
0000
0000
0000
0000
0000
0000
0000
,
0000
0030
0000
0000
,
0000
0000
0000
0000
,
0000
0000
0000
0000
,
0000
0000
0000
0000
,
0000
0000
0000
0000
,
0000
0000
0000
0000
,
0000
0000
0000
0000
,
1000
0100
0110
0010
0000
1000
0100
0010
0210
2300
3200
0320
0230
0300
1000
0100
,
0010
1000
0200
0310
1110
1120
1030
0210
2310
3100
1120
1130
0010
0010
0000
2220
,
3330
1100
1120
1130
1110
1110
1100
1110
1100
0110
0100
0010
2110
3000
1020
0030
,
0210
0310
0110
0110
0220
2330
3110
0100
0100
0010
0100
0000
0100
0210
0300
0220
,
0330
0100
0010
0100
0010
0120
0230
0310
0100
0010
0100
0010
0100
0010
0100
0010
,
0100
0010
0100
0010
0100
0010
0100
0010
0100
0020
0130
0010
0100
0010
0100
1210
,
0320
1030
2000
3000
0220
2330
3000
1000
1100
2000
3020
0030
0000
1000
0020
1030
,
1110
1110
1000
0000
0010
1110
1110
1100
1100
1100
1100
1110
1000
2100
3120
0230
,
2310
3120
1030
1110
1100
1100
1100
1000
1000
0100
0200
0320
0030
1120
0030
2220
,
3330
1000
0020
2030
3120
2030
3220
0330
2000
3220
0330
1220
0300
2030
3120
2030
,
3200
0310
2000
3120
2030
3120
0030
1120
0000
1030
0010
2000
3010
2000
3020
2030
,
3000
0000
0000
0000
0000
0000
0000
0000
0000
0000
0000
0000
0020
0000
0000
0000
0000
0000
0000
0000
0000
0000
0000
0000
0030
0000
0000
0000
0000
0000
0000
0000
0000
0000
0000
0000
2020
0000
0000
0000
0000
0000
0000
0000
0000
0000
0000
0000
3030
0000
0000
0000
0000
0000
0000
0000
0000
0000
0000
0000
0010
0000
0000
0000
0000
0000
0000
0000
0000
0000
0000
0000
1000
0000
0000
0000
0000
0000
0000
0000
0000
0000
0000
0000
0010
0000
0000
0000
0000
0000
0000
0000
0000
0000
0000
0000
1100
0000
0000
0000
0000
0000
0000
0000
0000
0000
0000
0000
2100
0000
0000
0000
0000
0000
0000
0000
0000
0000
0000
0000
3000
0000
0000
0000
0000
0000
0000
0000
0000
0000
0000
0000
0110
0000
0000
0000
0000
0000
0000
0000
0000
0000
0000
0000
0100
0000
0000
0000
0000
0000
0000
0000
0200
0300
0210
1300
2110
3020
2130
3110
1000
0110
1020
0030
1020
2030
3020
2030
3220
2330
3210
1300
2000
3220
0330
0000
0000
0020
0000
0000
2030
0000
0000
3020
2000
0000
0030
0000
3220
0000
0000
0000
,
2330
0000
0000
0000
0000
0000
3000
0000
0200
0000
0000
0000
0010
0000
0000
0000
0300
0000
0000
0000
0000
0000
0000
0000
0020
0000
0000
0000
0000
0000
0000
0000
1030
0000
0000
0000
0000
0000
0000
0000
0220
0000
0000
0000
0000
0000
0000
0000
2330
0000
0000
0000
0000
0000
0000
0000
3220
0000
0000
0000
1000
0000
0000
0000
0330
0000
0000
0000
0000
0000
0000
0000
0110
0000
0000
0000
0000
0000
0000
0000
0000
0000
0000
0000
1020
0000
0000
0000
0000
0000
0000
0000
0000
0000
0000
0000
0230
0000
0000
0000
0000
0000
0000
0000
0000
0000
0000
0000
1300
0000
0000
0000
0000
0000
0000
0000
0000
0000
0000
0000
2110
0000
0000
0000
0000
0000
0000
0000
0000
0000
0000
0000
3020
0000
0000
0000
0000
0000
0000
0000
0000
0000
0000
0000
2030
0000
0000
0000
0000
0000
0000
0000
0000
0000
0000
0000
3020
0000
0000
0000
0000
0000
0000
0000
0000
0000
0000
0000
2030
0000
0000
0000
0000
0000
0000
0000
0000
0000
0000
0000
3020
0000
0000
0000
0000
0000
0000
0000
0000
0000
0000
0000
,
2030
3020
2030
3020
2030
3020
2030
3000
0000
0000
0000
0000
0000
0000
0000
0000
,
0000
0000
0000
0000
0000
0000
0000
0000
0200
0000
0000
0320
0000
0000
0030
0000
,
0000
0000
0200
0000
0000
0300
0000
0000
0200
0000
0020
0300
0000
0000
0000
0030
,
0200
0020
0000
0300
0030
1210
0320
0000
1030
0000
0000
0000
0000
0000
0000
0000
,
0000
0200
0000
0000
0320
1230
0300
0000
0000
0000
0000
0000
0000
0200
0000
0300
,
0000
0020
0000
0000
0030
0000
0000
0000
0000
0000
0100
0020
0000
0000
0030
0000
,
1000
0000
0000
0010
0200
2300
3200
0320
0030
0100
1000
0100
0010
0100
1000
0200
,
0320
0230
2300
3000
0100
0010
0100
1000
0100
0010
0100
2000
3200
0320
0230
2300
,
3200
0300
0010
0100
1000
0100
0100
0010
0100
1000
0100
0010
0100
1000
0100
0010
,
0200
2300
3000
0100
0010
0100
0200
0300
0000
0100
0010
1000
0200
0310
0200
2300
,
3000
0000
0000
0000
0000
0000
0000
0000
0000
0000
0000
0000
0120
0000
0000
0000
0000
0000
0000
0000
0000
0000
0000
0000
0030
0000
0000
0000
0000
0000
0000
0000
0000
0000
0000
0000
0100
0000
0000
0000
0000
0000
0000
0000
0000
0000
0000
0000
1100
0000
0000
0000
0000
0000
0000
0000
0000
0000
0000
0000
0000
0000
0000
0000
0000
0000
0000
0000
0000
0000
0000
0000
0003
0020
0000
0000
0000
0000
0000
0000
0000
0000
0000
0000
0000
0000
0000
0000
0000
0000
0000
0000
0000
0000
0000
0000
0000
0000
0000
0000
0000
0000
0000
0000
0000
0000
0000
0000
0000
0000
0000
0000
0000
0000
0000
0000
0000
0000
0000
0000
0000
0000
0000
0000
0000
0000
0000
0000
0000
0000
0000
0000
0000
0000
0000
0000
0000
0000
0000
0000
0000
0000
0000
0000
0000
0000
0000
0000
0000
0000
0000
0000
0000
0000
0000
0000
0000
0000
0000
0000
0000
0000
0000
0000
0000
0000
0000
0000
0000
0000
0000
0000
0000
0000
0000
0000
0000
0000
0000
0000
0000
0000
0000
0000
0000
0000
0000
0000
0000
0000
0000
0000
,
0000
0000
0000
0000
,
0000
0000
0000
0000
,
0000
0000
0000
0000
,
0000
0000
0000
0000
,
0000
0000
0000
0000
,
0000
0000
0000
0000
,
0000
0000
0000
0000
,
0000
0000
0000
0000
,
1030
0100
0110
0010
0000
1000
0100
0010
0210
2300
3200
0320
0230
0300
1000
0100
,
0010
1000
0200
0310
1110
1120
1030
0210
2310
3100
1120
1130
0010
0010
0000
2220
,
3330
1100
1120
1130
1110
1110
1100
1110
1100
0110
0100
0010
2110
3000
1020
0030
,
0210
0310
0110
0110
0220
2330
3110
0100
0100
0010
0100
0000
0100
0210
0300
0220
,
0330
0100
0010
0100
0010
0120
0230
0310
0100
0010
0100
0010
0100
0010
0100
0010
,
0100
0010
0100
0010
0100
0010
0100
0010
0100
0020
0130
0010
0100
0010
0100
1210
,
0320
1030
2000
3000
0220
2330
3000
1000
1100
2000
3020
0030
0000
1000
0020
1030
,
1110
1110
1000
0000
0010
1110
1110
1100
1100
1100
1100
1110
1000
2100
3120
0230
,
2310
3120
1030
1110
1100
1100
1100
1000
1000
0100
0200
0320
0030
1120
0030
2220
,
3330
1000
0020
2030
3120
2030
3220
0330
2000
3220
0330
1220
0300
2030
3120
2030
,
3200
0310
2000
3120
2030
3120
0030
1120
0000
1030
0010
2000
3010
2000
3020
2030
,
3000
0000
0000
0000
0000
0000
0000
0000
0000
0000
0000
0000
0020
0000
0000
0000
0000
0000
0000
0000
0000
0000
0000
0000
0030
0000
0000
0000
0000
0000
0000
0000
0000
0000
0000
0000
2020
0000
0000
0000
0000
0000
0000
0000
0000
0000
0000
0000
3030
0000
0000
0000
0000
0000
0000
0000
0000
0000
0000
0000
0010
0000
0000
0000
0000
0000
0000
0000
0000
0000
0000
0000
1000
0000
0000
0000
0000
0000
0000
0000
0000
0000
0000
0000
0010
0000
0000
0000
0000
0000
0000
0000
0000
0000
0000
0000
1100
0000
0000
0000
0000
0000
0000
0000
0000
0000
0000
0000
2100
0000
0000
0000
0000
0000
0000
0000
0000
0000
0000
0000
3000
0000
0000
0000
0000
0000
0000
0000
0000
0000
0000
0000
0110
0000
0000
0000
0000
0000
0000
0000
0000
0000
0000
0000
0100
0000
0000
0000
0000
0000
0000
0000
0200
0300
0210
1300
2110
3020
2130
3110
1000
0110
1020
0030
1020
2030
3020
2030
3220
2330
3210
1300
2000
3220
0330
0000
0000
0020
0000
0000
2030
0000
0000
3020
2000
0000
0030
0000
3220
0000
0000
0000
,
2330
0000
0000
0000
0000
0000
3000
0000
0200
0000
0000
0000
0010
0000
0000
0000
0300
0000
0000
0000
0000
0000
0000
0000
0020
0000
0000
0000
0000
0000
0000
0000
1030
0000
0000
0000
0000
0000
0000
0000
0220
0000
0000
0000
0000
0000
0000
0000
2330
0000
0000
0000
0000
0000
0000
0000
3220
0000
0000
0000
1000
0000
0000
0000
0330
0000
0000
0000
0000
0000
0000
0000
0110
0000
0000
0000
0000
0000
0000
0000
0000
0000
0000
0000
1020
0000
0000
0000
0000
0000
0000
0000
0000
0000
0000
0000
0230
0000
0000
0000
0000
0000
0000
0000
0000
0000
0000
0000
1300
0000
0000
0000
0000
0000
0000
0000
0000
0000
0000
0000
2110
0000
0000
0000
0000
0000
0000
0000
0000
0000
0000
0000
3020
0000
0000
0000
0000
0000
0000
0000
0000
0000
0000
0000
2030
0000
0000
0000
0000
0000
0000
0000
0000
0000
0000
0000
3020
0000
0000
0000
0000
0000
0000
0000
0000
0000
0000
0000
2030
0000
0000
0000
0000
0000
0000
0000
0000
0000
0000
0000
3020
0000
0000
0000
0000
0000
0000
0000
0000
0000
0000
0000
,
2030
3020
2030
3020
2030
3020
2030
3000
0000
0000
0000
0000
0000
0000
0000
0000
,
0000
0000
0000
0000
0000
0000
0000
0000
0200
0000
0000
0320
0000
0000
0030
0000
,
0000
0000
0200
0000
0000
0300
0000
0000
0200
0000
0020
0300
0000
0000
0000
0030
,
0200
0020
0000
0300
0030
1210
0320
0000
1030
0000
0000
0000
0000
0000
0000
0000
,
0000
0200
0000
0000
0320
1230
0300
0000
0000
0000
0000
0000
0000
0200
0000
0300
,
0000
0020
0000
0000
0031
0000
0000
0000
0000
0000
0100
0020
0000
0000
0030
0000
,
1001
0000
0000
0010
0200
2300
3200
0320
0030
0100
1000
0100
0011
0100
1000
0200
,
0322
0230
2300
3000
0103
0010
0100
1000
0100
0010
0100
2000
3200
0320
0230
2300
,
3200
0300
0010
0100
1000
0100
0100
0010
0100
1000
0100
0010
0100
1000
0100
0010
,
0201
2300
3000
0100
0010
0100
0200
0300
0000
0100
0010
1000
0200
0310
0200
2300
,
3001
0000
0000
0000
0000
0000
0000
0000
0000
0000
0000
0000
0120
0000
0000
0000
0000
0000
0000
0000
0000
0000
0000
0000
0030
0000
0000
0000
0000
0000
0000
0000
0000
0000
0000
0000
0100
0000
0000
0000
0000
0000
0000
0000
0000
0000
0000
0000
1101
0000
0000
0000
0000
0000
0000
0000
0000
0000
0000
0000
0000
0000
0000
0000
0000
0000
0000
0000
0000
0000
0000
0000
0000
0002
0000
0000
0000
0000
0000
0000
0000
0000
0000
0000
0000
0000
0000
0000
0000
0000
0000
0000
0000
0000
0000
0000
0000
0000
0000
0000
0000
0000
0000
0000
0000
0000
0000
0000
0000
0000
0000
0000
0000
0000
0000
0000
0000
0000
0000
0000
0000
0000
0000
0000
0000
0000
0000
0000
0000
0000
0000
0000
0000
0000
0000
0000
0000
0000
0000
0000
0000
0000
0000
0000
0000
0000
0000
0000
0000
0000
0000
0000
0000
0000
0000
0000
0000
0000
0000
0000
0000
0000
0000
0000
0000
0000
0000
0000
0000
0000
0000
0000
0000
0000
0000
0000
0000
0000
0000
0000
0000
0000
0000
0000
0000
0000
0000
0000
0000
0000
0000
0000
,
0000
0000
0000
0000
,
0000
0000
0000
0000
,
0000
0000
0000
0000
,
0000
0000
0000
0000
,
0000
0000
0000
0000
,
1000
0100
0110
0010
0000
1000
0100
0010
0210
2300
3200
0320
0230
0300
1000
0100
,
0010
1000
0200
0310
1110
1120
1030
0210
2310
3100
1120
1130
0010
0010
0000
2220
,
3330
1100
1120
1130
1110
1110
1100
1110
1100
0110
0100
0010
2110
3000
1020
0030
,
0210
0310
0110
0110
0220
2330
3110
0100
0100
0010
0100
0000
0100
0210
0300
0220
,
0330
0100
0010
0100
0010
0120
0230
0310
0100
0010
0100
0010
0100
0010
0100
0010
,
0100
0010
0100
0010
0100
0010
0100
0010
0100
0020
0130
0010
0100
0010
0100
1210
,
0320
1030
2000
3000
0220
2330
3000
1000
1100
2000
3020
0030
0000
1000
0020
1030
,
1110
1110
1000
0000
0010
1110
1110
1100
1100
1100
1100
1110
1000
2100
3120
0230
,
2310
3120
1030
1110
1100
1100
1100
1000
1000
0100
0200
0320
0030
1120
0030
2220
,
3330
1000
0020
2030
3120
2030
3220
0330
2000
3220
0330
1220
0300
2030
3120
2030
,
3200
0310
2000
3120
2030
3120
0030
1120
0000
1030
0010
2000
3010
2000
3020
2030
,
3000
0000
0000
0000
0000
0000
0000
0000
0000
0000
0000
0000
0020
0000
0000
0000
0000
0000
0000
0000
0000
0000
0000
0000
0030
0000
0000
0000
0000
0000
0000
0000
0000
0000
0000
0000
2020
0000
0000
0000
0000
0000
0000
0000
0000
0000
0000
0000
3030
0000
0000
0000
0000
0000
0000
0000
0000
0000
0000
0000
0010
0000
0000
0000
0000
0000
0000
0000
0000
0000
0000
0000
1000
0000
0000
0000
0000
0000
0000
0000
0000
0000
0000
0000
0010
0000
0000
0000
0000
0000
0000
0000
0000
0000
0000
0000
1100
0000
0000
0000
0000
0000
0000
0000
0000
0000
0000
0000
2100
0000
0000
0000
0000
0000
0000
0000
0000
0000
0000
0000
3000
0000
0000
0000
0000
0000
0000
0000
0000
0000
0000
0000
0110
0000
0000
0000
0000
0000
0000
0000
0000
0000
0000
0000
0100
0000
0000
0000
0000
0000
0000
0000
0200
0300
0210
1300
2110
3020
2130
3110
1000
0110
1020
0030
1020
2030
3020
2030
3220
2330
3210
1300
2000
3220
0330
0000
0000
0020
0000
0000
2030
0000
0000
3020
2000
0000
0030
0000
3220
0000
0000
0000
,
2330
0000
0000
0000
0000
0000
3000
0000
0200
0000
0000
0000
0010
0000
0000
0000
0300
0000
0000
0000
0000
0000
0000
0000
0020
0000
0000
0000
0000
0000
0000
0000
1030
0000
0000
0000
0000
0000
0000
0000
0220
0000
0000
0000
0000
0000
0000
0000
2330
0000
0000
0000
0000
0000
0000
0000
3220
0000
0000
0000
1000
0000
0000
0000
0330
0000
0000
0000
0000
0000
0000
0000
0110
0000
0000
0000
0000
0000
0000
0000
0000
0000
0000
0000
1020
0000
0000
0000
0000
0000
0000
0000
0000
0000
0000
0000
0230
0000
0000
0000
0000
0000
0000
0000
0000
0000
0000
0000
1300
0000
0000
0000
0000
0000
0000
0000
0000
0000
0000
0000
2110
0000
0000
0000
0000
0000
0000
0000
0000
0000
0000
0000
3020
0000
0000
0000
0000
0000
0000
0000
0000
0000
0000
0000
2030
0000
0000
0000
0000
0000
0000
0000
0000
0000
0000
0000
3020
0000
0000
0000
0000
0000
0000
0000
0000
0000
0000
0000
2030
0000
0000
0000
0000
0000
0000
0000
0000
0000
0000
0000
3020
0000
0000
0000
0000
0000
0000
0000
0000
0000
0000
0000
,
2030
3020
2030
3020
2030
3020
2030
3000
0000
0000
0000
0000
0000
0000
0000
0000
,
0000
0000
0000
0000
0000
0000
0000
0000
0200
0000
0000
0320
0000
0000
0030
0000
,
0000
0000
0200
0000
0000
0300
0000
0000
0200
0000
0020
0300
0000
0000
0000
0030
,
0200
0020
0000
0300
0030
1210
0320
0000
1030
0000
0000
0000
0000
0000
0000
0000
,
0000
0200
0000
0000
0320
1230
0300
0000
0000
0000
0000
0000
0000
0200
0000
0300
,
0000
0020
0000
0000
0030
0000
0000
0000
0000
0000
0100
0020
0000
0000
0030
0000
,
1000
0000
0000
0010
0200
2300
3200
0320
0030
0100
1000
0100
0010
0100
1000
0200
,
0320
0230
2300
3000
0100
0010
0100
1000
0100
0010
0100
2000
3200
0320
0230
2300
,
3200
0300
0010
0100
1000
0100
0100
0010
0100
1000
0100
0010
0100
1000
0100
0010
,
0200
2300
3000
0100
0010
0100
0200
0300
0000
0100
0010
1000
0200
0310
0200
2300
,
3000
0120
0030
0100
1100
0000
0000
0000
0000
0000
0000
0000
0000
0000
0000
0000
,
1000
0100
0110
0010
0000
1000
0100
0010
0210
2300
3200
0320
0230
0300
1000
0100
,
0010
1000
0200
0310
1110
1120
1030
0210
2310
3100
1120
1130
0010
0010
0000
2220
,
3330
1100
1120
1130
1110
1110
1100
1110
1100
0110
0100
0010
2110
3000
1020
0030
,
0210
0310
0110
0110
0220
2330
3110
0100
0100
0010
0100
0000
0100
0210
0300
0220
,
0330
0100
0010
0100
0010
0120
0230
0310
0100
0010
0100
0010
0100
0010
0100
0010
,
0100
0010
0100
0010
0100
0010
0100
0010
0100
0020
0130
0010
0100
0010
0100
1210
,
0320
1030
2000
3000
0220
2330
3000
1000
1100
2000
3020
0030
0000
1000
0020
1030
,
1110
1110
1000
0000
0010
1110
1110
1100
1100
1100
1100
1110
1000
2100
3120
0230
,
2310
3120
1030
1110
1100
1100
1100
1000
1000
0100
0200
0320
0030
1120
0030
2220
,
3330
1000
0020
2030
3120
2030
3220
0330
2000
3220
0330
1220
0300
2030
3120
2030
,
3200
0310
2000
3120
2030
3120
0030
1120
0000
1030
0010
2000
3010
2000
3020
2030
,
3000
0000
0000
0000
0000
0000
0000
0000
0000
0000
0000
0000
0020
0000
0000
0000
0000
0000
0000
0000
0000
0000
0000
0000
0030
0000
0000
0000
0000
0000
0000
0000
0000
0000
0000
0000
2020
0000
0000
0000
0000
0000
0000
0000
0000
0000
0000
0000
3030
0000
0000
0000
0000
0000
0000
0000
0000
0000
0000
0000
0010
0000
0000
0000
0000
0000
0000
0000
0000
0000
0000
0000
1000
0000
0000
0000
0000
0000
0000
0000
0000
0000
0000
0000
0010
0000
0000
0000
0000
0000
0000
0000
0000
0000
0000
0000
1100
0000
0000
0000
0000
0000
0000
0000
0000
0000
0000
0000
2100
0000
0000
0000
0000
0000
0000
0000
0000
0000
0000
0000
3000
0000
0000
0000
0000
0000
0000
0000
0000
0000
0000
0000
0110
0000
0000
0000
0000
0000
0000
0000
0000
0000
0000
0000
0100
0000
0000
0000
0000
0000
0000
0000
0200
0300
0210
1300
2110
3020
2130
3110
1000
0110
1020
0030
1020
2030
3020
2030
3220
2330
3210
1300
2000
3220
0330
0000
0000
0020
0000
0000
2030
0000
0000
3020
2000
0000
0030
0000
3220
0000
0000
0000
,
2330
0000
0000
0000
0000
0000
3000
0000
0200
0000
0000
0000
0010
0000
0000
0000
0300
0000
0000
0000
0000
0000
0000
0000
0020
0000
0000
0000
0000
0000
0000
0000
1030
0000
0000
0000
0000
0000
0000
0000
0220
0000
0000
0000
0000
0000
0000
0000
2330
0000
0000
0000
0000
0000
0000
0000
3220
0000
0000
0000
1000
0000
0000
0000
0330
0000
0000
0000
0000
0000
0000
0000
0110
0000
0000
0000
0000
0000
0000
0000
0000
0000
0000
0000
1020
0000
0000
0000
0000
0000
0000
0000
0000
0000
0000
0000
0230
0000
0000
0000
0000
0000
0000
0000
0000
0000
0000
0000
1300
0000
0000
0000
0000
0000
0000
0000
0000
0000
0000
0000
2110
0000
0000
0000
0000
0000
0000
0000
0000
0000
0000
0000
3020
0000
0000
0000
0000
0000
0000
0000
0000
0000
0000
0000
2030
0000
0000
0000
0000
0000
0000
0000
0000
0000
0000
0000
3020
0000
0000
0000
0000
0000
0000
0000
0000
0000
0000
0000
2030
0000
0000
0000
0000
0000
0000
0000
0000
0000
0000
0000
3020
0000
0000
0000
0000
0000
0000
0000
0000
0000
0000
0000
,
2030
3020
2030
3020
2030
3020
2030
3000
0000
0000
0000
0000
0000
0000
0000
0000
,
0000
0000
0000
0000
0000
0000
0000
0000
0200
0000
0000
0320
0000
0000
0030
0000
,
0000
0000
0200
0000
0000
0300
0000
0000
0200
0000
0020
0300
0000
0000
0000
0030
,
0200
0020
0000
0300
0030
1210
0320
0000
1030
0000
0000
0000
0000
0000
0000
0000
,
0000
0200
0000
0000
0320
1230
0300
0000
0000
0000
0000
0000
0000
0200
0000
0300
,
0000
0020
0000
0000
0030
0000
0000
0000
0000
0000
0100
0020
0000
0000
0030
0000
,
1000
0000
0000
0010
0200
2300
3200
0320
0030
0100
1000
0100
0010
0100
1000
0200
,
0320
0230
2300
3000
0100
0010
0100
1000
0100
0010
0100
2000
3200
0320
0230
2300
,
3200
0300
0010
0100
1000
0100
0100
0010
0100
1000
0100
0010
0100
1000
0100
0010
,
0200
2300
3000
0100
0010
0100
0200
0300
0000
0100
0010
1000
0200
0310
0200
2300
,
3000
0000
0000
0000
0000
0000
0000
0000
0000
0000
0000
0000
0120
0000
0000
0000
0000
0000
0000
0000
0000
0000
0000
0000
0030
0000
0000
0000
0000
0000
0000
0000
0000
0000
0000
0000
0100
0000
0000
0000
0000
0000
0000
0000
0000
0000
0000
0000
1100
0000
0000
0000
0000
0000
0000
0000
0000
0000
0000
0000
0000
0000
0000
0000
0000
0000
0000
0000
0000
0000
0000
0000
0003
0002
0000
0000
0000
0000
0000
0000
0000
0000
0000
0000
0000
0000
0000
0000
0000
0000
0000
0000
0000
0000
0000
0000
0000
0000
0000
0000
0000
0000
0000
0000
0000
0000
0000
0000
0000
0000
0000
0000
0000
0000
0000
0000
0000
0000
0000
0000
0000
0000
0000
0000
0000
0000
0000
0000
0000
0000
0000
0000
0000
0000
0000
0000
0000
0000
0000
0000
0000
0000
0000
0000
0000
0000
0000
0000
0000
0000
0000
0000
0000
0000
0000
0000
0000
0000
0000
0000
0000
0000
0000
0000
0000
0000
0000
0000
0000
0000
0000
0000
0000
0000
0000
0000
0000
0000
0000
0000
0000
0000
0000
0000
0000
0000
0000
0000
0000
0000
0000
0000
,
1000
0100
0110
0010
0000
1000
0100
0010
0210
2300
3200
0320
0230
0300
1000
0100
,
0010
1000
0200
0310
1110
1120
1030
0210
2310
3100
1120
1130
0010
0010
0000
2220
,
3330
1100
1120
1130
1110
1110
1100
1110
1100
0110
0100
0010
2110
3000
1020
0030
,
0210
0310
0110
0110
0220
2330
3110
0100
0100
0010
0100
0000
0100
0210
0300
0220
,
0330
0100
0010
0100
0010
0120
0230
0310
0100
0010
0100
0010
0100
0010
0100
0010
,
0100
0010
0100
0010
0100
0010
0100
0010
0100
0020
0130
0010
0100
0010
0100
1210
,
0320
1030
2000
3000
0220
2330
3000
1000
1100
2000
3020
0030
0000
1000
0020
1030
,
1110
1110
1000
0000
0010
1110
1110
1100
1100
1100
1100
1110
1000
2100
3120
0230
,
2310
3120
1030
1110
1100
1100
1100
1000
1000
0100
0200
0320
0030
1120
0030
2220
,
3330
1000
0020
2030
3120
2030
3220
0330
2000
3220
0330
1220
0300
2030
3120
2030
,
3200
0310
2000
3120
2030
3120
0030
1120
0000
1030
0010
2000
3010
2000
3020
2030
,
3000
0000
0000
0000
0000
0000
0000
0000
0000
0000
0000
0000
0020
0000
0000
0000
0000
0000
0000
0000
0000
0000
0000
0000
0030
0000
0000
0000
0000
0000
0000
0000
0000
0000
0000
0000
2020
0000
0000
0000
0000
0000
0000
0000
0000
0000
0000
0000
3030
0000
0000
0000
0000
0000
0000
0000
0000
0000
0000
0000
0010
0000
0000
0000
0000
0000
0000
0000
0000
0000
0000
0000
1000
0000
0000
0000
0000
0000
0000
0000
0000
0000
0000
0000
0010
0000
0000
0000
0000
0000
0000
0000
0000
0000
0000
0000
1100
0000
0000
0000
0000
0000
0000
0000
0000
0000
0000
0000
2100
0000
0000
0000
0000
0000
0000
0000
0000
0000
0000
0000
3000
0000
0000
0000
0000
0000
0000
0000
0000
0000
0000
0000
0110
0000
0000
0000
0000
0000
0000
0000
0000
0000
0000
0000
0100
0000
0000
0000
0000
0000
0000
0000
0200
0300
0210
1300
2110
3020
2130
3110
1000
0110
1020
0030
1020
2030
3020
2030
3220
2330
3210
1300
2000
3220
0330
0000
0000
0020
0000
0000
2030
0000
0000
3020
2000
0000
0030
0000
3220
0000
0000
0000
,
2330
0000
0000
0000
0000
0000
3000
0000
0200
0000
0000
0000
0010
0000
0000
0000
0300
0000
0000
0000
0000
0000
0000
0000
0020
0000
0000
0000
0000
0000
0000
0000
1030
0000
0000
0000
0000
0000
0000
0000
0220
0000
0000
0000
0000
0000
0000
0000
2330
0000
0000
0000
0000
0000
0000
0000
3220
0000
0000
0000
1000
0000
0000
0000
0330
0000
0000
0000
0000
0000
0000
0000
0110
0000
0000
0000
0000
0000
0000
0000
0000
0000
0000
0000
1020
0000
0000
0000
0000
0000
0000
0000
0000
0000
0000
0000
0230
0000
0000
0000
0000
0000
0000
0000
0000
0000
0000
0000
1300
0000
0000
0000
0000
0000
0000
0000
0000
0000
0000
0000
2110
0000
0000
0000
0000
0000
0000
0000
0000
0000
0000
0000
3020
0000
0000
0000
0000
0000
0000
0000
0000
0000
0000
0000
2030
0000
0000
0000
0000
0000
0000
0000
0000
0000
0000
0000
3020
0000
0000
0000
0000
0000
0000
0000
0000
0000
0000
0000
2030
0000
0000
0000
0000
0000
0000
0000
0000
0000
0000
0000
3020
0000
0000
0000
0000
0000
0000
0000
0000
0000
0000
0000
,
2030
3020
2030
3020
2030
3020
2030
3000
0000
0000
0000
0000
0000
0000
0000
0000
,
0000
0000
0000
0000
0000
0000
0000
0000
0200
0000
0000
0320
0000
0000
0030
0000
,
0000
0000
0200
0000
0000
0300
0000
0000
0200
0000
0020
0300
0000
0000
0000
0030
,
0200
0020
0000
0300
0030
1210
0320
0000
1030
0000
0000
0000
0000
0000
0000
0000
,
0000
0200
0000
0000
0320
1230
0300
0000
0000
0000
0000
0000
0000
0200
0000
0300
,
0000
0020
0000
0000
0030
0000
0000
0000
0000
0000
0100
0020
0000
0000
0030
0000
,
1000
0000
0000
0010
0200
2300
3200
0320
0030
0100
1000
0100
0010
0100
1000
0200
,
0320
0230
2300
3000
0100
0010
0100
1000
0100
0010
0100
2000
3200
0320
0230
2300
,
3200
0300
0010
0100
1000
0100
0100
0010
0100
1000
0100
0010
0100
1000
0100
0010
,
0200
2300
3000
0100
0010
0100
0200
0300
0000
0100
0010
1000
0200
0310
0200
2300
,
3000
0000
0000
0000
0000
0000
0000
0000
0000
0000
0000
0000
0120
0000
0000
0000
0000
0000
0000
0000
0000
0000
0000
0000
0030
0000
0000
0000
0000
0000
0000
0000
0000
0000
0000
0000
0100
0000
0000
0000
0000
0000
0000
0000
0000
0000
0000
0000
1100
0000
0000
0000
0000
0000
0000
0000
0000
0000
0000
0000
0000
0000
0000
0000
0000
0000
0000
0000
0000
0000
0000
0000
0003
0002
0000
0000
0000
0000
0000
0000
0000
0000
0000
0000
0000
0000
0000
0000
0000
0000
0000
0000
0000
0000
0000
0000
0000
0000
0000
0000
0000
0000
0000
0000
0000
0000
0000
0000
0000
0000
0000
0000
0000
0000
0000
0000
0000
0000
0000
0000
0000
0000
0000
0000
0000
0000
0000
0000
0000
0000
0000
0000
0000
0000
0000
0000
0000
0000
0000
0000
0000
0000
0000
0000
0000
0000
0000
0000
0000
0000
0000
0000
0000
0000
0000
0000
0000
0000
0000
0000
0000
0000
0000
0000
0000
0000
0000
0000
0000
0000
0000
0000
0000
0000
0000
0000
0000
0000
0000
0000
0000
0000
0000
0000
0000
0000
0000
0000
0000
0000
0000
0000
,
1000
0100
0110
0010
0000
1000
0100
0010
0210
2300
3200
0320
0230
0300
1000
0100
,
0010
1000
0200
0310
1110
1120
1030
0210
2310
3100
1120
1130
0010
0010
0000
2220
,
3330
1100
1120
1130
1110
1110
1100
1110
1100
0110
0100
0010
2110
3000
1020
0030
,
0210
0310
0110
0110
0220
2330
3110
0100
0100
0010
0100
0000
0100
0210
0300
0220
,
0330
0100
0010
0100
0010
0120
0230
0310
0100
0010
0100
0010
0100
0010
0100
0010
,
0100
0010
0100
0010
0100
0010
0100
0010
0100
0020
0130
0010
0100
0010
0100
1210
,
0320
1030
2000
3000
0220
2330
3000
1000
1100
2000
3020
0030
0000
1000
0020
1030
,
1110
1110
1000
0000
0010
1110
1110
1100
1100
1100
1100
1110
1000
2100
3120
0230
,
2310
3120
1030
1110
1100
1100
1100
1000
1000
0100
0200
0320
0030
1120
0030
2220
,
3330
1000
0020
2030
3120
2030
3220
0330
2000
3220
0330
1220
0300
2030
3120
2030
,
3200
0310
2000
3120
2030
3120
0030
1120
0000
1030
0010
2000
3010
2000
3020
2030
,
3000
0000
0000
0000
0000
0000
0000
0000
0000
0000
0000
0000
0020
0000
0000
0000
0000
0000
0000
0000
0000
0000
0000
0000
0030
0000
0000
0000
0000
0000
0000
0000
0000
0000
0000
0000
2020
0000
0000
0000
0000
0000
0000
0000
0000
0000
0000
0000
3030
0000
0000
0000
0000
0000
0000
0000
0000
0000
0000
0000
0010
0000
0000
0000
0000
0000
0000
0000
0000
0000
0000
0000
1000
0000
0000
0000
0000
0000
0000
0000
0000
0000
0000
0000
0010
0000
0000
0000
0000
0000
0000
0000
0000
0000
0000
0000
1100
0000
0000
0000
0000
0000
0000
0000
0000
0000
0000
0000
2100
0000
0000
0000
0000
0000
0000
0000
0000
0000
0000
0000
3000
0000
0000
0000
0000
0000
0000
0000
0000
0000
0000
0000
0110
0000
0000
0000
0000
0000
0000
0000
0000
0000
0000
0000
0100
0000
0000
0000
0000
0000
0000
0000
0200
0300
0210
1300
2110
3020
2130
3110
1000
0110
1020
0030
1020
2030
3020
2030
3220
2330
3210
1300
2000
3220
0330
0000
0000
0020
0000
0000
2030
0000
0000
3020
2000
0000
0030
0000
3220
0000
0000
0000
,
2330
0000
0000
0000
0000
0000
3000
0000
0200
0000
0000
0000
0010
0000
0000
0000
0300
0000
0000
0000
0000
0000
0000
0000
0020
0000
0000
0000
0000
0000
0000
0000
1030
0000
0000
0000
0000
0000
0000
0000
0220
0000
0000
0000
0000
0000
0000
0000
2330
0000
0000
0000
0000
0000
0000
0000
3220
0000
0000
0000
1000
0000
0000
0000
0330
0000
0000
0000
0000
0000
0000
0000
0110
0000
0000
0000
0000
0000
0000
0000
0000
0000
0000
0000
1020
0000
0000
0000
0000
0000
0000
0000
0000
0000
0000
0000
0230
0000
0000
0000
0000
0000
0000
0000
0000
0000
0000
0000
1300
0000
0000
0000
0000
0000
0000
0000
0000
0000
0000
0000
2110
0000
0000
0000
0000
0000
0000
0000
0000
0000
0000
0000
3020
0000
0000
0000
0000
0000
0000
0000
0000
0000
0000
0000
2030
0000
0000
0000
0000
0000
0000
0000
0000
0000
0000
0000
3020
0000
0000
0000
0000
0000
0000
0000
0000
0000
0000
0000
2030
0000
0000
0000
0000
0000
0000
0000
0000
0000
0000
0000
3020
0000
0000
0000
0000
0000
0000
0000
0000
0000
0000
0000
,
2030
3020
2030
3020
2030
3020
2030
3000
0000
0000
0000
0000
0000
0000
0000
0000
,
0000
0000
0000
0000
0000
0000
0000
0000
0200
0000
0000
0320
0000
0000
0030
0000
,
0000
0000
0200
0000
0000
0300
0000
0000
0200
0000
0020
0300
0000
0000
0000
0030
,
0200
0020
0000
0300
0030
1210
0320
0000
1030
0000
0000
0000
0000
0000
0000
0000
,
0000
0200
0000
0000
0320
1230
0300
0000
0000
0000
0000
0000
0000
0200
0000
0300
,
0000
0020
0000
0000
0030
0000
0000
0000
0000
0000
0100
0020
0000
0000
0030
0000
,
1000
0000
0000
0010
0200
2300
3200
0320
0030
0100
1000
0100
0010
0100
1000
0200
,
0320
0230
2300
3000
0100
0010
0100
1000
0100
0010
0100
2000
3200
0320
0230
2300
,
3200
0300
0010
0100
1000
0100
0100
0010
0100
1000
0100
0010
0100
1000
0100
0010
,
0200
2300
3000
0100
0010
0100
0200
0300
0000
0100
0010
1000
0200
0310
0200
2300
,
3000
0000
0000
0000
0000
0000
0000
0000
0000
0000
0000
0000
0120
0000
0000
0000
0000
0000
0000
0000
0000
0000
0000
0000
0030
0000
0000
0000
0000
0000
0000
0000
0000
0000
0000
0000
0100
0000
0000
0000
0000
0000
0000
0000
0000
0000
0000
0000
1100
0000
0000
0000
0000
0000
0000
0000
0000
0000
0000
0000
0000
0000
0000
0000
0000
0000
0000
0000
0000
0000
0000
0000
0003
0002
0000
0000
0000
0000
0000
0000
0000
0000
0000
0000
0000
0000
0000
0000
0000
0000
0000
0000
0000
0000
0000
0000
0000
0000
0000
0000
0000
0000
0000
0000
0000
0000
0000
0000
0000
0000
0000
0000
0000
0000
0000
0000
0000
0000
0000
0000
0000
0000
0000
0000
0000
0000
0000
0000
0000
0000
0000
0000
0000
0000
0000
0000
0000
0000
0000
0000
0000
0000
0000
0000
0000
0000
0000
0000
0000
0000
0000
0000
0000
0000
0000
0000
0000
0000
0000
0000
0000
0000
0000
0000
0000
0000
0000
0000
0000
0000
0000
0000
0000
0000
0000
0000
0000
0000
0000
0000
0000
0000
0000
0000
0000
0000
0000
0000
0000
0000
0000
0000
,
0000
0000
0000
0000
,
0000
0000
0000
0000
,
0000
0000
0020
0000
,
0000
0000
0000
0000
,
0000
0000
0000
0000
,
0000
0000
0000
0000
,
0000
0030
0000
0000
,
1000
0100
0110
0010
0000
1000
0100
0010
0210
2300
3200
0320
0230
0300
1000
0100
,
0010
1000
0200
0310
1110
1120
1030
0210
2310
3100
1120
1130
0010
0010
0000
2220
,
3330
1100
1120
1130
1110
1110
1100
1110
1100
0110
0100
0010
2110
3000
1020
0030
,
0210
0310
0110
0110
0220
2330
3110
0100
0100
0010
0100
0000
0100
0210
0300
0220
,
0330
0100
0010
0100
0010
0120
0230
0310
0100
0010
0100
0010
0100
0010
0100
0010
,
0100
0010
0100
0010
0100
0010
0100
0010
0100
0020
0130
0010
0100
0010
0100
1210
,
0320
1030
2000
3000
0220
2330
3000
1000
1100
2000
3020
0030
0000
1000
0020
1030
,
1110
1110
1000
0000
0010
1110
1110
1100
1100
1100
1100
1110
1000
2100
3120
0230
,
2310
3120
1030
1110
1100
1100
1100
1000
1000
0100
0200
0320
0030
1120
0030
2220
,
3330
1000
0020
2030
3120
2030
3220
0330
2000
3220
0330
1220
0300
2030
3120
2030
,
3200
0310
2000
3120
2030
3120
0030
1120
0000
1030
0010
2000
3010
2000
3020
2030
,
3000
0000
0000
0000
0000
0000
0000
0000
0000
0000
0000
0000
0020
0000
0000
0000
0000
0000
0000
0000
0000
0000
0000
0000
0030
0000
0000
0000
0000
0000
0000
0000
0000
0000
0000
0000
2020
0000
0000
0000
0000
0000
0000
0000
0000
0000
0000
0000
3030
0000
0000
0000
0000
0000
0000
0000
0000
0000
0000
0000
0010
0000
0000
0000
0000
0000
0000
0000
0000
0000
0000
0000
1000
0000
0000
0000
0000
0000
0000
0000
0000
0000
0000
0000
0010
0000
0000
0000
0000
0000
0000
0000
0000
0000
0000
0000
1100
0000
0000
0000
0000
0000
0000
0000
0000
0000
0000
0000
2100
0000
0000
0000
0000
0000
0000
0000
0000
0000
0000
0000
3000
0000
0000
0000
0000
0000
0000
0000
0000
0000
0000
0000
0110
0000
0000
0000
0000
0000
0000
0000
0000
0000
0000
0000
0100
0000
0000
0000
0000
0000
0000
0000
0200
0300
0210
1300
2110
3020
2130
3110
1000
0110
1020
0030
1020
2030
3020
2030
3220
2330
3210
1300
2000
3220
0330
0000
0000
0020
0000
0000
2030
0000
0000
3020
2000
0000
0030
0000
3220
0000
0000
0000
,
2330
0000
0000
0000
0000
0000
3000
0000
0200
0000
0000
0000
0010
0000
0000
0000
0300
0000
0000
0000
0000
0000
0000
0000
0020
0000
0000
0000
0000
0000
0000
0000
1030
0000
0000
0000
0000
0000
0000
0000
0220
0000
0000
0000
0000
0000
0000
0000
2330
0000
0000
0000
0000
0000
0000
0000
3220
0000
0000
0000
1000
0000
0000
0000
0330
0000
0000
0000
0000
0000
0000
0000
0110
0000
0000
0000
0000
0000
0000
0000
0000
0000
0000
0000
1020
0000
0000
0000
0000
0000
0000
0000
0000
0000
0000
0000
0230
0000
0000
0000
0000
0000
0000
0000
0000
0000
0000
0000
1300
0000
0000
0000
0000
0000
0000
0000
0000
0000
0000
0000
2110
0000
0000
0000
0000
0000
0000
0000
0000
0000
0000
0000
3020
0000
0000
0000
0000
0000
0000
0000
0000
0000
0000
0000
2030
0000
0000
0000
0000
0000
0000
0000
0000
0000
0000
0000
3020
0000
0000
0000
0000
0000
0000
0000
0000
0000
0000
0000
2030
0000
0000
0000
0000
0000
0000
0000
0000
0000
0000
0000
3020
0000
0000
0000
0000
0000
0000
0000
0000
0000
0000
0000
,
2030
3020
2030
3020
2030
3020
2030
3000
0000
0000
0000
0000
0000
0000
0000
0000
,
0000
0000
0000
0000
0000
0000
0000
0000
0200
0000
0000
0320
0000
0000
0030
0000
,
0000
0000
0200
0000
0000
0300
0000
0000
0200
0000
0020
0300
0000
0000
0000
0030
,
0200
0020
0000
0300
0030
1210
0320
0000
1030
0000
0000
0000
0000
0000
0000
0000
,
0000
0200
0000
0000
0320
1230
0300
0000
0000
0000
0000
0000
0000
0200
0000
0300
,
0000
0020
0000
0000
0030
0000
0000
0000
0000
0000
0100
0020
0000
0000
0030
0000
,
1000
0000
0000
0010
0200
2300
3200
0320
0030
0100
1000
0100
0010
0100
1000
0200
,
0320
0230
2300
3000
0100
0010
0100
1000
0100
0010
0100
2000
3200
0320
0230
2300
,
3200
0300
0010
0100
1000
0100
0100
0010
0100
1000
0100
0010
0100
1000
0100
0010
,
0200
2300
3000
0100
0010
0100
0200
0300
0000
0100
0010
1000
0200
0310
0200
2300
,
3000
0000
0000
0000
0000
0000
0000
0000
0000
0000
0000
0000
0120
0000
0000
0000
0000
0000
0000
0000
0000
0000
0000
0000
0030
0000
0000
0000
0000
0000
0000
0000
0000
0000
0000
0000
0100
0000
0000
0000
0000
0000
0000
0000
0000
0000
0000
0000
1100
0000
0000
0000
0000
0000
0000
0000
0000
0000
0000
0000
0000
0000
0000
0000
0000
0000
0000
0000
0000
0000
0000
0000
0003
0002
0000
0000
0000
0000
0000
0000
0000
0000
0000
0000
0000
0000
0000
0000
0000
0000
0000
0000
0000
0000
0000
0000
0000
0000
0000
0000
0000
0000
0000
0000
0000
0000
0000
0000
0000
0000
0000
0000
0000
0000
0000
0000
0000
0000
0000
0000
0000
0000
0000
0000
0000
0000
0000
0000
0000
0000
0000
0000
0000
0000
0000
0000
0000
0000
0000
0000
0000
0000
0000
0000
0000
0000
0000
0000
0000
0000
0000
0000
0000
0000
0000
0000
0000
0000
0000
0000
0000
0000
0000
0000
0000
0000
0000
0000
0000
0000
0000
0000
0000
0000
0000
0000
0000
0000
0000
0000
0000
0000
0000
0000
0000
0000
0000
0000
0000
0000
0000
0000
,
1000
0100
0110
0010
0000
1000
0100
0010
0210
2300
3200
0320
0230
0300
1000
0100
,
0010
1000
0200
0310
1110
1120
1030
0210
2310
3100
1120
1130
0010
0010
0000
2220
,
3330
1100
1120
1130
1110
1110
1100
1110
1100
0110
0100
0010
2110
3000
1020
0030
,
0210
0310
0110
0110
0220
2330
3110
0100
0100
0010
0100
0000
0100
0210
0300
0220
,
0330
0100
0010
0100
0010
0120
0230
0310
0100
0010
0100
0010
0100
0010
0100
0010
,
0100
0010
0100
0010
0100
0010
0100
0010
0100
0020
0130
0010
0100
0010
0100
1210
,
0320
1030
2000
3000
0220
2330
3000
1000
1100
2000
3020
0030
0000
1000
0020
1030
,
1110
1110
1000
0000
0010
1110
1110
1100
1100
1100
1100
1110
1000
2100
3120
0230
,
2310
3120
1030
1110
1100
1100
1100
1000
1000
0100
0200
0320
0030
1120
0030
2220
,
3330
1000
0020
2030
3120
2030
3220
0330
2000
3220
0330
1220
0300
2030
3120
2030
,
3200
0310
2000
3120
2030
3120
0030
1120
0000
1030
0010
2000
3010
2000
3020
2030
,
3000
0000
0000
0000
0000
0000
0000
0000
0000
0000
0000
0000
0020
0000
0000
0000
0000
0000
0000
0000
0000
0000
0000
0000
0030
0000
0000
0000
0000
0000
0000
0000
0000
0000
0000
0000
2020
0000
0000
0000
0000
0000
0000
0000
0000
0000
0000
0000
3030
0000
0000
0000
0000
0000
0000
0000
0000
0000
0000
0000
0010
0000
0000
0000
0000
0000
0000
0000
0000
0000
0000
0000
1000
0000
0000
0000
0000
0000
0000
0000
0000
0000
0000
0000
0010
0000
0000
0000
0000
0000
0000
0000
0000
0000
0000
0000
1100
0000
0000
0000
0000
0000
0000
0000
0000
0000
0000
0000
2100
0000
0000
0000
0000
0000
0000
0000
0000
0000
0000
0000
3000
0000
0000
0000
0000
0000
0000
0000
0000
0000
0000
0000
0110
0000
0000
0000
0000
0000
0000
0000
0000
0000
0000
0000
0100
0000
0000
0000
0000
0000
0000
0000
0200
0300
0210
1300
2110
3020
2130
3110
1000
0110
1020
0030
1020
2030
3020
2030
3220
2330
3210
1300
2000
3220
0330
0000
0000
0020
0000
0000
2030
0000
0000
3020
2000
0000
0030
0000
3220
0000
0000
0000
,
2330
0000
0000
0000
0000
0000
3000
0000
0200
0000
0000
0000
0010
0000
0000
0000
0300
0000
0000
0000
0000
0000
0000
0000
0020
0000
0000
0000
0000
0000
0000
0000
1030
0000
0000
0000
0000
0000
0000
0000
0220
0000
0000
0000
0000
0000
0000
0000
2330
0000
0000
0000
0000
0000
0000
0000
3220
0000
0000
0000
1000
0000
0000
0000
0330
0000
0000
0000
0000
0000
0000
0000
0110
0000
0000
0000
0000
0000
0000
0000
0000
0000
0000
0000
1020
0000
0000
0000
0000
0000
0000
0000
0000
0000
0000
0000
0230
0000
0000
0000
0000
0000
0000
0000
0000
0000
0000
0000
1300
0000
0000
0000
0000
0000
0000
0000
0000
0000
0000
0000
2110
0000
0000
0000
0000
0000
0000
0000
0000
0000
0000
0000
3020
0000
0000
0000
0000
0000
0000
0000
0000
0000
0000
0000
2030
0000
0000
0000
0000
0000
0000
0000
0000
0000
0000
0000
3020
0000
0000
0000
0000
0000
0000
0000
0000
0000
0000
0000
2030
0000
0000
0000
0000
0000
0000
0000
0000
0000
0000
0000
3020
0000
0000
0000
0000
0000
0000
0000
0000
0000
0000
0000
,
2030
3020
2030
3020
2030
3020
2030
3000
0000
0000
0000
0000
0000
0000
0000
0000
,
0000
0000
0000
0000
0000
0000
0000
0000
0200
0000
0000
0320
0000
0000
0030
0000
,
0000
0000
0200
0000
0000
0300
0000
0000
0200
0000
0020
0300
0000
0000
0000
0030
,
0200
0020
0000
0300
0030
1210
0320
0000
1030
0000
0000
0000
0000
0000
0000
0000
,
0000
0200
0000
0000
0320
1230
0300
0000
0000
0000
0000
0000
0000
0200
0000
0300
,
0000
0020
0000
0000
0030
0000
0000
0000
0000
0000
0100
0020
0000
0000
0030
0000
,
1000
0000
0000
0010
0200
2300
3200
0320
0030
0100
1000
0100
0010
0100
1000
0200
,
0320
0230
2300
3000
0100
0010
0100
1000
0100
0010
0100
2000
3200
0320
0230
2300
,
3200
0300
0010
0100
1000
0100
0100
0010
0100
1000
0100
0010
0100
1000
0100
0010
,
0200
2300
3000
0100
0010
0100
0200
0300
0000
0100
0010
1000
0200
0310
0200
2300
,
3000
0000
0000
0000
0000
0000
0000
0000
0000
0000
0000
0000
0120
0000
0000
0000
0000
0000
0000
0000
0000
0000
0000
0000
0030
0000
0000
0000
0000
0000
0000
0000
0000
0000
0000
0000
0100
0000
0000
0000
0000
0000
0000
0000
0000
0000
0000
0000
1100
0000
0000
0000
0000
0000
0000
0000
0000
0000
0000
0000
0000
0000
0000
0000
0000
0000
0000
0000
0000
0000
0000
0000
0003
0002
0000
0000
0000
0000
0000
0000
0000
0000
0000
0000
0000
0000
0000
0000
0000
0000
0000
0000
0000
0000
0000
0000
0000
0000
0000
0000
0000
0000
0000
0000
0000
0000
0000
0000
0000
0000
0000
0000
0000
0000
0000
0000
0000
0000
0000
0000
0100
0000
0000
0000
0000
0000
0000
0000
0000
0000
0000
0000
0020
0000
0000
0000
0000
0000
0000
0000
0000
0000
0000
0000
0000
0000
0000
0000
0000
0000
0000
0000
0000
0000
0000
0000
0000
0000
0000
0000
0000
0000
0000
0000
0000
0000
0000
0000
0030
0000
0000
0000
0000
0000
0000
0000
0000
0000
0000
0000
0000
0000
0000
0000
0000
0000
0000
0000
0000
0000
0000
0000
,
1000
0000
0000
0010
0200
2300
3200
0320
0030
0100
1000
0100
0010
0100
1000
0200
,
0320
0230
2300
3000
0100
0010
0100
1000
0100
0010
0100
2000
3200
0320
0230
2300
,
3200
0300
0010
0100
1000
0100
0100
0010
0100
1000
0100
0010
0100
1000
0100
0010
,
0200
2300
3000
0100
0010
0100
0200
0300
0000
0100
0010
1000
0200
0310
0200
2300
,
3000
0000
0000
0000
0000
0000
0000
0000
0000
0000
0000
0000
0120
0000
0000
0000
0000
0000
0000
0000
0000
0000
0000
0000
0030
0000
0000
0000
0000
0000
0000
0000
0000
0000
0000
0000
0100
0000
0000
0000
0000
0000
0000
0000
0000
0000
0000
0000
1100
0000
0000
0000
0000
0000
0000
0000
0000
0000
0000
0000
0000
0000
0000
0000
0000
0000
0000
0000
0000
0000
0000
0000
0003
0022
0000
0000
0000
0000
0000
0000
0000
0000
0000
0000
0000
0000
0000
0000
0000
0000
0000
0000
0000
0000
0000
0000
0000
0000
0000
0000
0000
0000
0000
0000
0000
0000
0000
0000
0000
0000
0000
0000
0000
0000
0000
0000
0000
0000
0000
0000
0000
0000
0000
0000
0000
0000
0000
0000
0000
0000
0000
0000
0000
0000
0000
0000
0000
0000
0000
0000
0000
0000
0000
0000
0000
0000
0000
0000
0000
0000
0000
0000
0000
0000
0000
0000
0000
0000
0000
0000
0000
0000
0000
0000
0000
0000
0000
0000
0000
0000
0000
0000
0000
0000
0000
0000
0000
0000
0000
0000
0000
0000
0000
0000
0000
0000
0000
0000
0000
0000
0000
0000
,
0000
0030
0000
0000
,
0000
0000
0000
0000
,
0000
0000
0000
0000
,
0000
0000
0000
0000
,
0000
0000
0000
0000
,
0000
0000
0000
0000
,
0000
0000
0000
0000
,
1000
0100
0110
0010
0000
1000
0100
0010
0210
2300
3200
0320
0230
0300
1000
0100
,
0010
1000
0200
0310
1110
1120
1030
0210
2310
3100
1120
1130
0010
0010
0000
2220
,
3330
1100
1120
1130
1110
1110
1100
1110
1100
0110
0100
0010
2110
3000
1020
0030
,
0210
0310
0110
0110
0220
2330
3110
0100
0100
0010
0100
0000
0100
0210
0300
0220
,
0330
0100
0010
0100
0010
0120
0230
0310
0100
0010
0100
0010
0100
0010
0100
0010
,
0100
0010
0100
0010
0100
0010
0100
0010
0100
0020
0130
0010
0100
0010
0100
1210
,
0320
1030
2000
3000
0220
2330
3000
1000
1100
2000
3020
0030
0000
1000
0020
1030
,
1110
1110
1000
0000
0010
1110
1110
1100
1100
1100
1100
1110
1000
2100
3120
0230
,
2310
3120
1030
1110
1100
1100
1100
1000
1000
0100
0200
0320
0030
1120
0030
2220
,
3330
1000
0020
2030
3120
2030
3220
0330
2000
3220
0330
1220
0300
2030
3120
2030
,
3200
0310
2000
3120
2030
3120
0030
1120
0000
1030
0010
2000
3010
2000
3020
2030
,
3000
0000
0000
0000
0000
0000
0000
0000
0000
0000
0000
0000
0020
0000
0000
0000
0000
0000
0000
0000
0000
0000
0000
0000
0030
0000
0000
0000
0000
0000
0000
0000
0000
0000
0000
0000
2020
0000
0000
0000
0000
0000
0000
0000
0000
0000
0000
0000
3030
0000
0000
0000
0000
0000
0000
0000
0000
0000
0000
0000
0010
0000
0000
0000
0000
0000
0000
0000
0000
0000
0000
0000
1000
0000
0000
0000
0000
0000
0000
0000
0000
0000
0000
0000
0010
0000
0000
0000
0000
0000
0000
0000
0000
0000
0000
0000
1100
0000
0000
0000
0000
0000
0000
0000
0000
0000
0000
0000
2100
0000
0000
0000
0000
0000
0000
0000
0000
0000
0000
0000
3000
0000
0000
0000
0000
0000
0000
0000
0000
0000
0000
0000
0110
0000
0000
0000
0000
0000
0000
0000
0000
0000
0000
0000
0100
0000
0000
0000
0000
0000
0000
0000
0200
0300
0210
1300
2110
3020
2130
3110
1000
0110
1020
0030
1020
2030
3020
2030
3220
2330
3210
1300
2000
3220
0330
0000
0000
0020
0000
0000
2030
0000
0000
3020
2000
0000
0030
0000
3220
0000
0000
0000
,
2330
0000
0000
0000
0000
0000
3000
0000
0200
0000
0000
0000
0010
0000
0000
0000
0300
0000
0000
0000
0000
0000
0000
0000
0020
0000
0000
0000
0000
0000
0000
0000
1030
0000
0000
0000
0000
0000
0000
0000
0220
0000
0000
0000
0000
0000
0000
0000
2330
0000
0000
0000
0000
0000
0000
0000
3220
0000
0000
0000
1000
0000
0000
0000
0330
0000
0000
0000
0000
0000
0000
0000
0110
0000
0000
0000
0000
0000
0000
0000
0000
0000
0000
0000
1020
0000
0000
0000
0000
0000
0000
0000
0000
0000
0000
0000
0230
0000
0000
0000
0000
0000
0000
0000
0000
0000
0000
0000
1300
0000
0000
0000
0000
0000
0000
0000
0000
0000
0000
0000
2110
0000
0000
0000
0000
0000
0000
0000
0000
0000
0000
0000
3020
0000
0000
0000
0000
0000
0000
0000
0000
0000
0000
0000
2030
0000
0000
0000
0000
0000
0000
0000
0000
0000
0000
0000
3020
0000
0000
0000
0000
0000
0000
0000
0000
0000
0000
0000
2030
0000
0000
0000
0000
0000
0000
0000
0000
0000
0000
0000
3020
0000
0000
0000
0000
0000
0000
0000
0000
0000
0000
0000
,
2030
3020
2030
3020
2030
3020
2030
3000
0000
0000
0000
0000
0000
0000
0000
0000
,
0000
0000
0000
0000
0000
0000
0000
0000
0200
0000
0000
0320
0000
0000
0030
0000
,
0000
0000
0200
0000
0000
0300
0000
0000
0200
0000
0020
0300
0000
0000
0000
0030
,
0200
0020
0000
0300
0030
1210
0320
0000
1030
0000
0000
0000
0000
0000
0000
0000
,
0000
0200
0000
0000
0320
1230
0300
0000
0000
0000
0000
0000
0000
0200
0000
0300
,
0000
0020
0000
0000
0030
0000
0000
0000
0000
0000
0100
0020
0000
0000
0030
0000
,
1000
0000
0000
0010
0200
2300
3200
0320
0030
0100
1000
0100
0010
0100
1000
0200
,
0320
0230
2300
3000
0100
0010
0100
1000
0100
0010
0100
2000
3200
0320
0230
2300
,
3200
0300
0010
0100
1000
0100
0100
0010
0100
1000
0100
0010
0100
1000
0100
0010
,
0200
2300
3000
0100
0010
0100
0200
0300
0000
0100
0010
1000
0200
0310
0200
2300
,
3000
0000
0000
0000
0000
0000
0000
0000
0000
0000
0000
0000
0120
0000
0000
0000
0000
0000
0000
0000
0000
0000
0000
0000
0030
0000
0000
0000
0000
0000
0000
0000
0000
0000
0000
0000
0100
0000
0000
0000
0000
0000
0000
0000
0000
0000
0000
0000
1100
0000
0000
0000
0000
0000
0000
0000
0000
0000
0000
0000
0000
0000
0000
0000
0000
0000
0000
0000
0000
0000
0000
0000
0003
0020
0000
0000
0000
0000
0000
0000
0000
0000
0000
0000
0000
0000
0000
0000
0000
0000
0000
0000
0000
0000
0000
0000
0000
0000
0000
0000
0000
0000
0000
0000
0000
0000
0000
0000
0000
0000
0000
0000
0000
0000
0000
0000
0000
0000
0000
0000
0000
0000
0000
0000
0000
0000
0000
0000
0000
0000
0000
0000
0000
0000
0000
0000
0000
0000
0000
0000
0000
0000
0000
0000
0000
0000
0000
0000
0000
0000
0000
0000
0000
0000
0000
0000
0000
0000
0000
0000
0000
0000
0000
0000
0000
0000
0000
0000
0000
0000
0000
0000
0000
0000
0000
0000
0000
0000
0000
0000
0000
0000
0000
0000
0000
0000
0000
0000
0000
0000
0000
0000
,
0000
0000
0000
0000
,
0000
0000
0000
0000
,
0000
0000
0000
0000
,
0000
0000
0000
0000
,
0000
0000
0000
0000
,
0000
0000
0000
0000
,
0000
0000
0000
0000
,
0000
0000
0000
0000
,
1030
0100
0110
0010
0000
1000
0100
0010
0210
2300
3200
0320
0230
0300
1000
0100
,
0010
1000
0200
0310
1110
1120
1030
0210
2310
3100
1120
1130
0010
0010
0000
2220
,
3330
1100
1120
1130
1110
1110
1100
1110
1100
0110
0100
0010
2110
3000
1020
0030
,
0210
0310
0110
0110
0220
2330
3110
0100
0100
0010
0100
0000
0100
0210
0300
0220
,
0330
0100
0010
0100
0010
0120
0230
0310
0100
0010
0100
0010
0100
0010
0100
0010
,
0100
0010
0100
0010
0100
0010
0100
0010
0100
0020
0130
0010
0100
0010
0100
1210
,
0320
1030
2000
3000
0220
2330
3000
1000
1100
2000
3020
0030
0000
1000
0020
1030
,
1110
1110
1000
0000
0010
1110
1110
1100
1100
1100
1100
1110
1000
2100
3120
0230
,
2310
3120
1030
1110
1100
1100
1100
1000
1000
0100
0200
0320
0030
1120
0030
2220
,
3330
1000
0020
2030
3120
2030
3220
0330
2000
3220
0330
1220
0300
2030
3120
2030
,
3200
0310
2000
3120
2030
3120
0030
1120
0000
1030
0010
2000
3010
2000
3020
2030
,
3000
0000
0000
0000
0000
0000
0000
0000
0000
0000
0000
0000
0020
0000
0000
0000
0000
0000
0000
0000
0000
0000
0000
0000
0030
0000
0000
0000
0000
0000
0000
0000
0000
0000
0000
0000
2020
0000
0000
0000
0000
0000
0000
0000
0000
0000
0000
0000
3030
0000
0000
0000
0000
0000
0000
0000
0000
0000
0000
0000
0010
0000
0000
0000
0000
0000
0000
0000
0000
0000
0000
0000
1000
0000
0000
0000
0000
0000
0000
0000
0000
0000
0000
0000
0010
0000
0000
0000
0000
0000
0000
0000
0000
0000
0000
0000
1100
0000
0000
0000
0000
0000
0000
0000
0000
0000
0000
0000
2100
0000
0000
0000
0000
0000
0000
0000
0000
0000
0000
0000
3000
0000
0000
0000
0000
0000
0000
0000
0000
0000
0000
0000
0110
0000
0000
0000
0000
0000
0000
0000
0000
0000
0000
0000
0100
0000
0000
0000
0000
0000
0000
0000
0200
0300
0210
1300
2110
3020
2130
3110
1000
0110
1020
0030
1020
2030
3020
2030
3220
2330
3210
1300
2000
3220
0330
0000
0000
0020
0000
0000
2030
0000
0000
3020
2000
0000
0030
0000
3220
0000
0000
0000
,
2330
0000
0000
0000
0000
0000
3000
0000
0200
0000
0000
0000
0010
0000
0000
0000
0300
0000
0000
0000
0000
0000
0000
0000
0020
0000
0000
0000
0000
0000
0000
0000
1030
0000
0000
0000
0000
0000
0000
0000
0220
0000
0000
0000
0000
0000
0000
0000
2330
0000
0000
0000
0000
0000
0000
0000
3220
0000
0000
0000
1000
0000
0000
0000
0330
0000
0000
0000
0000
0000
0000
0000
0110
0000
0000
0000
0000
0000
0000
0000
0000
0000
0000
0000
1020
0000
0000
0000
0000
0000
0000
0000
0000
0000
0000
0000
0230
0000
0000
0000
0000
0000
0000
0000
0000
0000
0000
0000
1300
0000
0000
0000
0000
0000
0000
0000
0000
0000
0000
0000
2110
0000
0000
0000
0000
0000
0000
0000
0000
0000
0000
0000
3020
0000
0000
0000
0000
0000
0000
0000
0000
0000
0000
0000
2030
0000
0000
0000
0000
0000
0000
0000
0000
0000
0000
0000
3020
0000
0000
0000
0000
0000
0000
0000
0000
0000
0000
0000
2030
0000
0000
0000
0000
0000
0000
0000
0000
0000
0000
0000
3020
0000
0000
0000
0000
0000
0000
0000
0000
0000
0000
0000
,
2030
3020
2030
3020
2030
3020
2030
3000
0000
0000
0000
0000
0000
0000
0000
0000
,
0000
0000
0000
0000
0000
0000
0000
0000
0200
0000
0000
0320
0000
0000
0030
0000
,
0000
0000
0200
0000
0000
0300
0000
0000
0200
0000
0020
0300
0000
0000
0000
0030
,
0200
0020
0000
0300
0030
1210
0320
0000
1030
0000
0000
0000
0000
0000
0000
0000
,
0000
0200
0000
0000
0320
1230
0300
0000
0000
0000
0000
0000
0000
0200
0000
0300
,
0000
0020
0000
0000
0031
0000
0000
0000
0000
0000
0100
0020
0000
0000
0030
0000
,
1001
0000
0000
0010
0200
2300
3200
0320
0030
0100
1000
0100
0011
0100
1000
0200
,
0322
0230
2300
3000
0103
0010
0100
1000
0100
0010
0100
2000
3200
0320
0230
2300
,
3200
0300
0010
0100
1000
0100
0100
0010
0100
1000
0100
0010
0100
1000
0100
0010
,
0201
2300
3000
0100
0010
0100
0200
0300
0000
0100
0010
1000
0200
0310
0200
2300
,
3001
0000
0000
0000
0000
0000
0000
0000
0000
0000
0000
0000
0120
0000
0000
0000
0000
0000
0000
0000
0000
0000
0000
0000
0030
0000
0000
0000
0000
0000
0000
0000
0000
0000
0000
0000
0100
0000
0000
0000
0000
0000
0000
0000
0000
0000
0000
0000
1101
0000
0000
0000
0000
0000
0000
0000
0000
0000
0000
0000
0000
0000
0000
0000
0000
0000
0000
0000
0000
0000
0000
0000
0000
0002
0000
0000
0000
0000
0000
0000
0000
0000
0000
0000
0000
0000
0000
0000
0000
0000
0000
0000
0000
0000
0000
0000
0003
0022
0000
0000
0000
0000
0000
0000
0000
0000
0000
0000
0000
0000
0000
0000
0000
0000
0000
0000
0000
0000
0000
0000
0000
0000
0000
0000
0000
0000
0000
0000
0000
0000
0000
0000
0000
0000
0000
0000
0000
0000
0000
0000
0000
0000
0000
0000
0000
0000
0000
0000
0000
0000
0000
0000
0000
0000
0000
0000
0000
0000
0000
0000
0000
0000
0000
0000
0000
0000
0000
0000
0000
0000
0000
0000
0000
0000
0000
0000
0000
0000
0000
0000
0000
0000
0000
0000
0000
0000
0000
0000
0000
0000
0000
0000
,
0000
0000
0000
0000
,
0000
0000
0000
0000
,
0000
0000
0000
0000
,
0000
0000
0000
0000
,
0000
0000
0000
0000
,
0000
0000
0000
0000
,
0000
0000
0000
0000
,
0000
0000
0000
0000
,
0000
0000
0000
0000
,
0000
0000
0000
0000
,
0000
0000
0000
0000
,
0000
0000
0000
0000
,
0000
0000
0000
0000
,
0000
0000
0000
0000
,
0000
0000
0000
0000
,
0000
0000
0000
0000
,
0000
0000
0000
0000
,
0000
0000
0000
0000
,
0000
0000
0000
0000
,
0000
0000
0000
0000
,
0000
0000
0000
0000
,
0000
0000
0000
0000
,
0000
0000
0000
0000
,
0000
0000
0000
0000
,
0000
0000
0000
0000
,
0000
0000
0000
0000
,
0000
0000
0000
0000
,
0000
0000
0000
0000
,
0000
0000
0000
0000
,
0000
0000
0000
0000
,
0000
0000
0000
0000
,
0000
0000
0000
0000
,
0000
0000
0000
0000
,
0000
0000
0000
0000
,
0000
0000
0000
0000
,
0000
0000
0000
0000
,
0000
0000
0000
0000
,
0000
0000
0000
0000
,
0000
0000
0000
0000
,
0000
0000
0000
0000
,
0000
0000
0000
0000
,
0000
0000
0000
0000
,
0000
0000
0000
0000
,
0000
0000
0000
0000
,
0000
0000
0000
0000
,
0000
0000
0000
0000
,
0000
0000
0000
0000
,
0000
0000
0000
0000
,
0000
0000
0000
0000
,
0000
0000
0000
0000
,
0000
0000
0000
0000
,
0000
0000
0000
0000
,
0000
0000
0000
0000
,
0000
0000
0000
0000
,
0000
0000
0000
0000
,
0000
0000
0000
0000
,
0000
0000
0000
0000
,
0000
0000
0000
0000
,
0000
0000
0000
0000
,
0030
0000
0000
0000
,
0000
0000
0000
0000
,
0003
0000
0000
0000
;
